***มีเสียงไทย 2 เวอร์ชั่น ***
เสียงมาสเตอร์ bluray พากย์ใหม่
เสียงไทยฉบับฉายโรง ทีมพากย์เสียงเอก






1080p BDRM Remux Full Bitrate

Unforgiven.1992.REMASTERED.1080p.Blu-Ray.AVC.Remux.DTS-HD.MA [email protected]
Format : Matroska
Format version : Version 4 / Version 2
File size : 28.0 GiB
Duration : 2 h 10 min
Overall bit rate mode : Variable
Overall bit rate : 30.7 Mb/s
Movie name : Unforgiven.1992.1080p.Blu-Ray.AVC.Remux.DTS-HD.MA [email protected]
Encoded date : UTC 2018-08-31 00:57:12
Writing application : mkvmerge v20.0.0 ('I Am The Sun') 64-bit
Writing library : libebml v1.3.5 + libmatroska v1.4.8
Cover : Yes
Attachments : cover.jpg

Video
ID : 1
Format : AVC
Format/Info : Advanced Video Codec
Format profile : [email protected]
Format settings, CABAC : Yes
Format settings, RefFrames : 4 frames
Codec ID : V_MPEG4/ISO/AVC
Duration : 2 h 10 min
Bit rate mode : Variable
Bit rate : 25.9 Mb/s
Maximum bit rate : 30.0 Mb/s
Width : 1 920 pixels
Height : 1 080 pixels

Display aspect ratio : 16:9
Frame rate mode : Constant
Frame rate : 23.976 (24000/1001) FPS
Color space : YUV
Chroma subsampling : 4:2:0
Bit depth : 8 bits
Scan type : Progressive
Bits/(Pixel*Frame) : 0.521
Stream size : 23.6 GiB (84%)
Title : @@[email protected]@
Language : English
Default : Yes
Forced : No

Audio #1
ID : 2
Format : AC-3
Format/Info : Audio Coding 3
Mode : Dolby Digital
Format settings, Endianness : Big
Codec ID : A_AC3
Duration : 2 h 10 min
Bit rate mode : Constant
Bit rate : 192 kb/s
Channel(s) : 2 channels
Channel positions : Front: L R
Sampling rate : 48.0 kHz
Frame rate : 31.250 FPS (1536 SPF)
Bit depth : 16 bits
Compression mode : Lossy
Delay relative to video : 792 ms
Stream size : 179 MiB (1%)
Title : Thai BD MASTER
Language : Thai

Service kind : Complete Main
Default : Yes
Forced : Yes

Audio #2
ID : 3
Format : AC-3
Format/Info : Audio Coding 3
Format settings, Endianness : Big
Codec ID : A_AC3
Duration : 2 h 10 min
Bit rate mode : Constant
Bit rate : 192 kb/s
Channel(s) : 2 channels
Channel positions : Front: L R
Sampling rate : 48.0 kHz
Frame rate : 31.250 FPS (1536 SPF)
Bit depth : 16 bits
Compression mode : Lossy
Stream size : 179 MiB (1%)
Title : Thai EAK Sound
Language : Thai

Service kind : Complete Main
Default : No
Forced : No

Audio #3
ID : 4
Format : DTS
Format/Info : Digital Theater Systems
Format profile : MA / Core
Mode : 16
Format settings, Endianness : Big
Codec ID : A_DTS
Duration : 2 h 10 min
Bit rate mode : Variable / Constant
Bit rate : 4 394 kb/s / 1 509 kb/s
Channel(s) : 6 channels
Channel positions : Front: L C R, Side: L R, LFE
Sampling rate : 48.0 kHz
Frame rate : 93.750 FPS (512 SPF)
Bit depth : 24 bits
Compression mode : Lossless / Lossy
Stream size : 4.01 GiB (14%)
Title : Eng DTS-HD MA 5.1
Language : English

Default : No
Forced : No

Text #1
ID : 5
Format : PGS
Muxing mode : zlib
Codec ID : S_HDMV/PGS
Codec ID/Info : Picture based subtitle format used on BDs/HD-DVDs
Duration : 2 h 9 min
Bit rate : 28.0 kb/s
Count of elements : 2850
Stream size : 25.9 MiB (0%)
Title : Eng
Language : English
Default : No
Forced : No

Text #2
ID : 6
Format : PGS
Muxing mode : zlib
Codec ID : S_HDMV/PGS
Codec ID/Info : Picture based subtitle format used on BDs/HD-DVDs
Duration : 2 h 10 min
Bit rate : 25.6 kb/s
Count of elements : 2646
Stream size : 23.8 MiB (0%)
Title : Thai PGS BD MASTER
Language : Thai

Default : Yes
Forced : Yes

Text #3
ID : 7
Format : PGS
Muxing mode : zlib
Codec ID : S_HDMV/PGS
Codec ID/Info : Picture based subtitle format used on BDs/HD-DVDs
Duration : 2 h 10 min
Bit rate : 25.6 kb/s
Count of elements : 2646
Stream size : 23.8 MiB (0%)
Title : Thai PGS BD MASTER LOW
Language : Thai
Default : No
Forced : No

Text #4
ID : 8
Format : VobSub
Muxing mode : zlib
Codec ID : S_VOBSUB
Codec ID/Info : Picture based subtitle format used on DVDs
Duration : 2 h 10 min
Bit rate : 7 305 b/s
Count of elements : 1323
Stream size : 6.80 MiB (0%)
Title : Thai 1080p
Language : Thai
Default : No
Forced : No

Text #5
ID : 9
Format : VobSub
Muxing mode : zlib
Codec ID : S_VOBSUB
Codec ID/Info : Picture based subtitle format used on DVDs
Duration : 2 h 10 min
Bit rate : 7 305 b/s
Count of elements : 1323
Stream size : 6.80 MiB (0%)
Title : Thai 1080p LOW
Language : Thai
Default : No
Forced : No

Text #6
ID : 10
Format : VobSub
Muxing mode : zlib
Codec ID : S_VOBSUB
Codec ID/Info : Picture based subtitle format used on DVDs
Duration : 2 h 10 min
Bit rate : 2 086 b/s
Count of elements : 1323
Stream size : 1.94 MiB (0%)
Title : Thai 480p
Language : Thai
Default : No
Forced : No

Text #7
ID : 11
Format : VobSub
Muxing mode : zlib
Codec ID : S_VOBSUB
Codec ID/Info : Picture based subtitle format used on DVDs
Duration : 2 h 10 min
Bit rate : 2 086 b/s
Count of elements : 1323
Stream size : 1.94 MiB (0%)
Title : Thai 480p LOW
Language : Thai
Default : No
Forced : No

***MODIFIED BY @ENTHD***














1080p FULL HD

[email protected]
Format : Matroska
Format version : Version 4 / Version 2
File size : 17.2 GiB
Duration : 2 h 10 min
Overall bit rate mode : Variable
Overall bit rate : 18.8 Mb/s
Movie name : [email protected]
Encoded date : UTC 2018-08-31 01:28:41
Writing application : mkvmerge v20.0.0 ('I Am The Sun') 64-bit
Writing library : libebml v1.3.5 + libmatroska v1.4.8
Cover : Yes
Attachments : cover.jpg

Video
ID : 1
Format : AVC
Format/Info : Advanced Video Codec
Format profile : [email protected]
Format settings, CABAC : Yes
Format settings, RefFrames : 4 frames
Format settings, GOP : M=4, N=24
Codec ID : V_MPEG4/ISO/AVC
Duration : 2 h 10 min
Bit rate mode : Variable
Bit rate : 14.0 Mb/s
Width : 1 920 pixels
Height : 1 080 pixels

Display aspect ratio : 16:9
Frame rate mode : Constant
Frame rate : 23.976 (23976/1000) FPS
Color space : YUV
Chroma subsampling : 4:2:0
Bit depth : 8 bits
Scan type : Progressive
Bits/(Pixel*Frame) : 0.282
Stream size : 12.8 GiB (74%)
Title : @@[email protected]@
Writing library : x264 core 148 r2665 a01e339
Encoding settings : cabac=1 / ref=4 / deblock=1:0:0 / analyse=0x3:0x133 / me=umh / subme=9 / psy=1 / psy_rd=1.00:0.00 / mixed_ref=1 / me_range=16 / chroma_me=1 / trellis=2 / 8x8dct=1 / cqm=0 / deadzone=21,11 / fast_pskip=1 / chroma_qp_offset=-2 / threads=12 / lookahead_threads=1 / sliced_threads=0 / slices=4 / nr=0 / decimate=1 / interlaced=0 / bluray_compat=0 / constrained_intra=0 / bframes=3 / b_pyramid=0 / b_adapt=1 / b_bias=0 / direct=3 / weightb=1 / open_gop=0 / weightp=1 / keyint=24 / keyint_min=1 / scenecut=40 / intra_refresh=0 / rc_lookahead=24 / rc=2pass / mbtree=1 / bitrate=14020 / ratetol=1.0 / qcomp=0.60 / qpmin=0 / qpmax=69 / qpstep=4 / cplxblur=20.0 / qblur=0.5 / vbv_maxrate=30000 / vbv_bufsize=30000 / nal_hrd=vbr / filler=0 / ip_ratio=1.10 / aq=1:1.00
Language : English
Default : Yes
Forced : No

Audio #1
ID : 2
Format : AC-3
Format/Info : Audio Coding 3
Mode : Dolby Digital
Format settings, Endianness : Big
Codec ID : A_AC3
Duration : 2 h 10 min
Bit rate mode : Constant
Bit rate : 192 kb/s
Channel(s) : 2 channels
Channel positions : Front: L R
Sampling rate : 48.0 kHz
Frame rate : 31.250 FPS (1536 SPF)
Bit depth : 16 bits
Compression mode : Lossy
Delay relative to video : 792 ms
Stream size : 179 MiB (1%)
Title : Thai BD MASTER
Language : Thai

Service kind : Complete Main
Default : Yes
Forced : Yes

Audio #2
ID : 3
Format : AC-3
Format/Info : Audio Coding 3
Format settings, Endianness : Big
Codec ID : A_AC3
Duration : 2 h 10 min
Bit rate mode : Constant
Bit rate : 192 kb/s
Channel(s) : 2 channels
Channel positions : Front: L R
Sampling rate : 48.0 kHz
Frame rate : 31.250 FPS (1536 SPF)
Bit depth : 16 bits
Compression mode : Lossy
Stream size : 179 MiB (1%)
Title : Thai EAK Sound
Language : Thai

Service kind : Complete Main
Default : No
Forced : No

Audio #3
ID : 4
Format : DTS
Format/Info : Digital Theater Systems
Format profile : MA / Core
Mode : 16
Format settings, Endianness : Big
Codec ID : A_DTS
Duration : 2 h 10 min
Bit rate mode : Variable / Constant
Bit rate : 4 394 kb/s / 1 509 kb/s
Channel(s) : 6 channels
Channel positions : Front: L C R, Side: L R, LFE
Sampling rate : 48.0 kHz
Frame rate : 93.750 FPS (512 SPF)
Bit depth : 24 bits
Compression mode : Lossless / Lossy
Stream size : 4.01 GiB (23%)
Title : Eng DTS-HD MA 5.1
Language : English

Default : No
Forced : No

Text #1
ID : 5
Format : PGS
Muxing mode : zlib
Codec ID : S_HDMV/PGS
Codec ID/Info : Picture based subtitle format used on BDs/HD-DVDs
Duration : 2 h 9 min
Bit rate : 28.0 kb/s
Count of elements : 2850
Stream size : 25.9 MiB (0%)
Title : Eng
Language : English
Default : No
Forced : No

Text #2
ID : 6
Format : PGS
Muxing mode : zlib
Codec ID : S_HDMV/PGS
Codec ID/Info : Picture based subtitle format used on BDs/HD-DVDs
Duration : 2 h 10 min
Bit rate : 25.6 kb/s
Count of elements : 2646
Stream size : 23.8 MiB (0%)
Title : Thai PGS BD MASTER
Language : Thai

Default : Yes
Forced : Yes

Text #3
ID : 7
Format : PGS
Muxing mode : zlib
Codec ID : S_HDMV/PGS
Codec ID/Info : Picture based subtitle format used on BDs/HD-DVDs
Duration : 2 h 10 min
Bit rate : 25.6 kb/s
Count of elements : 2646
Stream size : 23.8 MiB (0%)
Title : Thai PGS BD MASTER LOW
Language : Thai
Default : No
Forced : No

Text #4
ID : 8
Format : VobSub
Muxing mode : zlib
Codec ID : S_VOBSUB
Codec ID/Info : Picture based subtitle format used on DVDs
Duration : 2 h 10 min
Bit rate : 7 305 b/s
Count of elements : 1323
Stream size : 6.80 MiB (0%)
Title : Thai 1080p
Language : Thai
Default : No
Forced : No

Text #5
ID : 9
Format : VobSub
Muxing mode : zlib
Codec ID : S_VOBSUB
Codec ID/Info : Picture based subtitle format used on DVDs
Duration : 2 h 10 min
Bit rate : 7 305 b/s
Count of elements : 1323
Stream size : 6.80 MiB (0%)
Title : Thai 1080p LOW
Language : Thai
Default : No
Forced : No

Text #6
ID : 10
Format : VobSub
Muxing mode : zlib
Codec ID : S_VOBSUB
Codec ID/Info : Picture based subtitle format used on DVDs
Duration : 2 h 10 min
Bit rate : 2 086 b/s
Count of elements : 1323
Stream size : 1.94 MiB (0%)
Title : Thai 480p
Language : Thai
Default : No
Forced : No

Text #7
ID : 11
Format : VobSub
Muxing mode : zlib
Codec ID : S_VOBSUB
Codec ID/Info : Picture based subtitle format used on DVDs
Duration : 2 h 10 min
Bit rate : 2 086 b/s
Count of elements : 1323
Stream size : 1.94 MiB (0%)
Title : Thai 480p LOW
Language : Thai
Default : No
Forced : No

***MODIFIED BY @ENTHD***






1080p Mini HD

[email protected]
Format : Matroska
Format version : Version 4 / Version 2
File size : 5.21 GiB
Duration : 2 h 10 min
Overall bit rate : 5 709 kb/s
Movie name : [email protected]
Encoded date : UTC 2018-08-30 14:10:00
Writing application : mkvmerge v20.0.0 ('I Am The Sun') 64-bit
Writing library : libebml v1.3.5 + libmatroska v1.4.8
Cover : Yes
Attachments : cover.jpg

Video
ID : 1
Format : AVC
Format/Info : Advanced Video Codec
Format profile : [email protected]
Format settings, CABAC : Yes
Format settings, RefFrames : 3 frames
Codec ID : V_MPEG4/ISO/AVC
Duration : 2 h 10 min
Bit rate : 4 519 kb/s
Width : 1 920 pixels
Height : 816 pixels

Display aspect ratio : 2.35:1
Frame rate mode : Constant
Frame rate : 23.976 (24000/1001) FPS
Color space : YUV
Chroma subsampling : 4:2:0
Bit depth : 8 bits
Scan type : Progressive
Bits/(Pixel*Frame) : 0.120
Stream size : 4.12 GiB (79%)
Title : @@[email protected]@
Writing library : x264 core 130 r2273 b3065e6
Encoding settings : cabac=1 / ref=4 / deblock=1:-2:-2 / analyse=0x3:0x113 / me=hex / subme=9 / psy=1 / psy_rd=1.00:0.15 / mixed_ref=1 / me_range=16 / chroma_me=1 / trellis=1 / 8x8dct=1 / cqm=0 / deadzone=21,11 / fast_pskip=1 / chroma_qp_offset=-3 / threads=6 / lookahead_threads=1 / sliced_threads=0 / nr=0 / decimate=1 / interlaced=0 / bluray_compat=0 / constrained_intra=0 / bframes=4 / b_pyramid=1 / b_adapt=2 / b_bias=0 / direct=1 / weightb=1 / open_gop=0 / weightp=2 / keyint=240 / keyint_min=24 / scenecut=40 / intra_refresh=0 / rc_lookahead=50 / rc=crf / mbtree=1 / crf=20.0 / qcomp=0.60 / qpmin=0 / qpmax=69 / qpstep=4 / ip_ratio=1.40 / aq=1:1.00
Language : English
Default : Yes
Forced : No
Color range : Limited
Color primaries : BT.709
Transfer characteristics : BT.709
Matrix coefficients : BT.709

Audio #1
ID : 2
Format : AC-3
Format/Info : Audio Coding 3
Mode : Dolby Digital
Format settings, Endianness : Big
Codec ID : A_AC3
Duration : 2 h 10 min
Bit rate mode : Constant
Bit rate : 192 kb/s
Channel(s) : 2 channels
Channel positions : Front: L R
Sampling rate : 48.0 kHz
Frame rate : 31.250 FPS (1536 SPF)
Bit depth : 16 bits
Compression mode : Lossy
Delay relative to video : 300 ms
Stream size : 179 MiB (3%)
Title : Thai BD MASTER
Language : Thai

Service kind : Complete Main
Default : Yes
Forced : Yes

Audio #2
ID : 3
Format : AC-3
Format/Info : Audio Coding 3
Format settings, Endianness : Big
Codec ID : A_AC3
Duration : 2 h 10 min
Bit rate mode : Constant
Bit rate : 192 kb/s
Channel(s) : 2 channels
Channel positions : Front: L R
Sampling rate : 48.0 kHz
Frame rate : 31.250 FPS (1536 SPF)
Bit depth : 16 bits
Compression mode : Lossy
Delay relative to video : 20 ms
Stream size : 179 MiB (3%)
Title : Thai EAK Sound
Language : Thai

Service kind : Complete Main
Default : No
Forced : No

Audio #3
ID : 4
Format : DTS
Format/Info : Digital Theater Systems
Mode : 16
Format settings, Endianness : Big
Codec ID : A_DTS
Duration : 2 h 10 min
Bit rate mode : Constant
Bit rate : 755 kb/s
Channel(s) : 6 channels
Channel positions : Front: L C R, Side: L R, LFE
Sampling rate : 48.0 kHz
Frame rate : 93.750 FPS (512 SPF)
Bit depth : 24 bits
Compression mode : Lossy
Delay relative to video : 9 ms
Stream size : 705 MiB (13%)
Title : Eng DTS 5.1
Language : English
Default : No
Forced : No

Text #1
ID : 5
Format : PGS
Muxing mode : zlib
Codec ID : S_HDMV/PGS
Codec ID/Info : Picture based subtitle format used on BDs/HD-DVDs
Duration : 2 h 8 min
Bit rate : 43.4 kb/s
Count of elements : 2584
Stream size : 40.0 MiB (1%)
Title : Eng
Language : English
Default : No
Forced : No

Text #2
ID : 6
Format : PGS
Muxing mode : zlib
Codec ID : S_HDMV/PGS
Codec ID/Info : Picture based subtitle format used on BDs/HD-DVDs
Duration : 2 h 10 min
Bit rate : 25.6 kb/s
Count of elements : 2646
Stream size : 23.8 MiB (0%)
Title : Thai PGS BD MASTER
Language : Thai

Default : Yes
Forced : Yes

Text #3
ID : 7
Format : PGS
Muxing mode : zlib
Codec ID : S_HDMV/PGS
Codec ID/Info : Picture based subtitle format used on BDs/HD-DVDs
Duration : 2 h 10 min
Bit rate : 25.6 kb/s
Count of elements : 2646
Stream size : 23.8 MiB (0%)
Title : Thai PGS BD MASTER LOW
Language : Thai
Default : No
Forced : No

Text #4
ID : 8
Format : VobSub
Muxing mode : zlib
Codec ID : S_VOBSUB
Codec ID/Info : Picture based subtitle format used on DVDs
Duration : 2 h 10 min
Bit rate : 7 305 b/s
Count of elements : 1323
Stream size : 6.80 MiB (0%)
Title : Thai 1080p
Language : Thai
Default : No
Forced : No

Text #5
ID : 9
Format : VobSub
Muxing mode : zlib
Codec ID : S_VOBSUB
Codec ID/Info : Picture based subtitle format used on DVDs
Duration : 2 h 10 min
Bit rate : 7 305 b/s
Count of elements : 1323
Stream size : 6.80 MiB (0%)
Title : Thai 1080p LOW
Language : Thai
Default : No
Forced : No

Text #6
ID : 10
Format : VobSub
Muxing mode : zlib
Codec ID : S_VOBSUB
Codec ID/Info : Picture based subtitle format used on DVDs
Duration : 2 h 10 min
Bit rate : 2 086 b/s
Count of elements : 1323
Stream size : 1.94 MiB (0%)
Title : Thai 480p
Language : Thai
Default : No
Forced : No

Text #7
ID : 11
Format : VobSub
Muxing mode : zlib
Codec ID : S_VOBSUB
Codec ID/Info : Picture based subtitle format used on DVDs
Duration : 2 h 10 min
Bit rate : 2 086 b/s
Count of elements : 1323
Stream size : 1.94 MiB (0%)
Title : Thai 480p LOW
Language : Thai
Default : No
Forced : No

***MODIFIED BY @ENTHD***






1080p SPMini HD

[email protected]
Format : Matroska
Format version : Version 4 / Version 2
File size : 3.37 GiB
Duration : 2 h 10 min
Overall bit rate : 3 688 kb/s
Movie name : [email protected]
Encoded date : UTC 2018-08-31 01:15:25
Writing application : mkvmerge v20.0.0 ('I Am The Sun') 64-bit
Writing library : libebml v1.3.5 + libmatroska v1.4.8
Cover : Yes
Attachments : cover.jpg

Video
ID : 1
Format : AVC
Format/Info : Advanced Video Codec
Format profile : [email protected]
Format settings, CABAC : Yes
Format settings, RefFrames : 4 frames
Codec ID : V_MPEG4/ISO/AVC
Duration : 2 h 10 min
Bit rate : 2 500 kb/s
Width : 1 920 pixels
Height : 800 pixels
Display aspect ratio : 2.40:1
Frame rate mode : Constant
Frame rate : 23.976 (23976/1000) FPS
Color space : YUV
Chroma subsampling : 4:2:0
Bit depth : 8 bits
Scan type : Progressive
Bits/(Pixel*Frame) : 0.068
Stream size : 2.28 GiB (68%)
Title : @@[email protected]@
Writing library : x264 core 148 r2597M e86f3a1
Encoding settings : cabac=1 / ref=4 / deblock=1:-1:-1 / analyse=0x3:0x113 / me=umh / subme=9 / psy=1 / psy_rd=1.00:0.15 / mixed_ref=1 / me_range=24 / chroma_me=1 / trellis=2 / 8x8dct=1 / cqm=0 / deadzone=21,11 / fast_pskip=1 / chroma_qp_offset=-3 / threads=32 / lookahead_threads=4 / sliced_threads=0 / nr=0 / decimate=1 / interlaced=0 / bluray_compat=0 / constrained_intra=0 / bframes=3 / b_pyramid=2 / b_adapt=2 / b_bias=0 / direct=3 / weightb=1 / open_gop=0 / weightp=2 / keyint=250 / keyint_min=25 / scenecut=40 / intra_refresh=0 / rc_lookahead=50 / rc=2pass / mbtree=1 / bitrate=2500 / ratetol=1.0 / qcomp=0.60 / qpmin=0 / qpmax=69 / qpstep=4 / cplxblur=20.0 / qblur=0.5 / vbv_maxrate=31250 / vbv_bufsize=31250 / nal_hrd=none / filler=0 / ip_ratio=1.40 / aq=3:1.00
Language : English
Default : Yes
Forced : No

Audio #1
ID : 2
Format : AC-3
Format/Info : Audio Coding 3
Mode : Dolby Digital
Format settings, Endianness : Big
Codec ID : A_AC3
Duration : 2 h 10 min
Bit rate mode : Constant
Bit rate : 192 kb/s
Channel(s) : 2 channels
Channel positions : Front: L R
Sampling rate : 48.0 kHz
Frame rate : 31.250 FPS (1536 SPF)
Bit depth : 16 bits
Compression mode : Lossy
Delay relative to video : 792 ms
Stream size : 179 MiB (5%)
Title : Thai BD MASTER
Language : Thai

Service kind : Complete Main
Default : Yes
Forced : Yes

Audio #2
ID : 3
Format : AC-3
Format/Info : Audio Coding 3
Format settings, Endianness : Big
Codec ID : A_AC3
Duration : 2 h 10 min
Bit rate mode : Constant
Bit rate : 192 kb/s
Channel(s) : 2 channels
Channel positions : Front: L R
Sampling rate : 48.0 kHz
Frame rate : 31.250 FPS (1536 SPF)
Bit depth : 16 bits
Compression mode : Lossy
Stream size : 179 MiB (5%)
Title : Thai EAK Sound
Language : Thai

Service kind : Complete Main
Default : No
Forced : No

Audio #3
ID : 4
Format : DTS
Format/Info : Digital Theater Systems
Mode : 16
Format settings, Endianness : Big
Codec ID : A_DTS
Duration : 2 h 10 min
Bit rate mode : Constant
Bit rate : 755 kb/s
Channel(s) : 6 channels
Channel positions : Front: L C R, Side: L R, LFE
Sampling rate : 48.0 kHz
Frame rate : 93.750 FPS (512 SPF)
Bit depth : 24 bits
Compression mode : Lossy
Stream size : 705 MiB (20%)
Title : Eng DTS 5.1
Language : English
Default : No
Forced : No

Text #1
ID : 5
Format : PGS
Muxing mode : zlib
Codec ID : S_HDMV/PGS
Codec ID/Info : Picture based subtitle format used on BDs/HD-DVDs
Duration : 2 h 9 min
Bit rate : 28.0 kb/s
Count of elements : 2850
Stream size : 25.9 MiB (1%)
Title : Eng
Language : English
Default : No
Forced : No

Text #2
ID : 6
Format : PGS
Muxing mode : zlib
Codec ID : S_HDMV/PGS
Codec ID/Info : Picture based subtitle format used on BDs/HD-DVDs
Duration : 2 h 10 min
Bit rate : 25.6 kb/s
Count of elements : 2646
Stream size : 23.8 MiB (1%)
Title : Thai PGS BD MASTER
Language : Thai

Default : Yes
Forced : Yes

Text #3
ID : 7
Format : PGS
Muxing mode : zlib
Codec ID : S_HDMV/PGS
Codec ID/Info : Picture based subtitle format used on BDs/HD-DVDs
Duration : 2 h 10 min
Bit rate : 25.6 kb/s
Count of elements : 2646
Stream size : 23.8 MiB (1%)
Title : Thai PGS BD MASTER LOW
Language : Thai
Default : No
Forced : No

Text #4
ID : 8
Format : VobSub
Muxing mode : zlib
Codec ID : S_VOBSUB
Codec ID/Info : Picture based subtitle format used on DVDs
Duration : 2 h 10 min
Bit rate : 7 305 b/s
Count of elements : 1323
Stream size : 6.80 MiB (0%)
Title : Thai 1080p
Language : Thai
Default : No
Forced : No

Text #5
ID : 9
Format : VobSub
Muxing mode : zlib
Codec ID : S_VOBSUB
Codec ID/Info : Picture based subtitle format used on DVDs
Duration : 2 h 10 min
Bit rate : 7 305 b/s
Count of elements : 1323
Stream size : 6.80 MiB (0%)
Title : Thai 1080p LOW
Language : Thai
Default : No
Forced : No

Text #6
ID : 10
Format : VobSub
Muxing mode : zlib
Codec ID : S_VOBSUB
Codec ID/Info : Picture based subtitle format used on DVDs
Duration : 2 h 10 min
Bit rate : 2 086 b/s
Count of elements : 1323
Stream size : 1.94 MiB (0%)
Title : Thai 480p
Language : Thai
Default : No
Forced : No

Text #7
ID : 11
Format : VobSub
Muxing mode : zlib
Codec ID : S_VOBSUB
Codec ID/Info : Picture based subtitle format used on DVDs
Duration : 2 h 10 min
Bit rate : 2 086 b/s
Count of elements : 1323
Stream size : 1.94 MiB (0%)
Title : Thai 480p LOW
Language : Thai
Default : No
Forced : No

***MODIFIED BY @ENTHD***




ในปี 1880เล่าถึงโสเภณีรายหนึ่งที่ถูกชายสองคนทำร้ายร่างก ายอย่างโหดร้ายจนใบหน้าเสียโฉม เธอรู้สึกแค้นใจจึงประกาศค่าหัวของชายหนุ่มทั้งสองคน เป็นเงินสูงถึง 1000เหรียญ ทำให้วิลเลี่ยม วิล มันนี่(คลินต์ อีสต์วูด)คาวบอยสูงอายุที่วางมือจากการดวลปืนมาเป็นเ วลานานกว่า 10 ปี ได้รับข่าวคราวเรื่องค่าหัวของชายหนุ่มสองคนจากคาวบอ ยหนุ่มคนหนึ่ง เขาจึงอยากได้เงินค่าหัวมาเลื้ยงดูและสร้างฐานะให้ลู กๆและตัวเขา

---------------------------------------------------------------------------------------------------------------

***ข้อแนะนำในการโหลดไฟล์จากเว็บต่างๆ***

###ควรใช้ IDM ในการโหลด และควรตั้งค่าเริ่มต้นเชื่อมต่อ ตั้งแต่ 8 ขึ้นไป ส่วนในกรณีที่ IDM ไม่ขึ้นตอนกดโหลดให้ติดตั้งส่วนขยายของ IDM ในเบราว์เซอร์ที่ใช้ ##




SPMiniHD

http://cornfile.com/dzox90ufyk1c

MiniHD

http://cornfile.com/vxu39xfcxrf1

Full HD

http://cornfile.com/elo6hu5kyz2q

1080p BDRM Remux Full Bitrate

http://cornfile.com/n7clygezh36t


>>สมัคร VIP cornfile <<

>> วิธีสมัคร VIP cornfile <<


ติดตามอัพเดตเรื่องอื่นๆได้ที่

http://enthdmovieclub.blogspot.com/