+ Reply to Thread
Results 1 to 2 of 2
  1. #1
    Administrators Duckload.us's Avatar
    Join Date
    Dec 2010
    Posts
    98,564
    Thanks
    9
    Thanked 99,998 Times in 47,954 Posts

    Question Thor เทพเจ้าสายฟ้า ภาค 1-3 (2011-2017) 1080p-DTS-Blu ray-AVC-H 264 [พากย์:Thai Eng][SUB:Thai Eng][1080p] [พากย์ไทย บรรยายไทย]





    Thor 1 เทพเจ้าสายฟ้า (2011) 1080p
    พากย์ อังกฤษ DTS ไทย อังกฤษ AC-3 บรรยาย ไทย อังกฤษ



    การเป็นวีรบุรุษที่แท้จริงนั้นเป็นเช่นไร เมื่อวายร้ายที่อันตรายที่สุด ได้ส่งกองกำลังที่เก่งกล้าสามารถมาจู่โจมโลกมนุษย์
    จากสตูดิโอผู้ให้กำเนิด Iron Man สู่อภิมหาความมันส์ฟอร์มอลังการของซูเปอร์ฮีโร่สายพั นธุ์เทพเจ้า เพื่อประกาศศักดาพลังห้าวหาญให้สะท้านปฐพี
    ธอร์ (คริส เฮมส์เวิร์ธ) ทายาทเทพเจ้าซึ่งเป็นนักรบผู้แกร่งกล้าแต่หยิ่งทะนง ผู้ซึ่งการกระทำไร้การยั้งคิดของเขาได้จุดเพลิงสงครา มโบราณให้ลุกโชนขึ้นมา
    อีกครั้ง ธอร์ ถูก โอดิน (แอนโธนี ฮ็อปกินส์) เทพบิดาของเขาขับไล่ลงมาสู่โลกมนุษย์
    และจำต้องใช้ชีวิตอยู่ท่ามกลางมวลมนุษย์ เจน ฟอสเตอร์ (นาตาลี พอร์ตแมน) นักวิทยาศาสตร์สาวสวย ได้กลายเป็นรักแรกของเขา
    ระหว่างที่อยู่บนโลกมนุษย์นี้เองที่ธอร์ได้เรียนรู้ว ่า การเป็นวีรบุรุษที่แท้จริงนั้นเป็นเช่นไร
    เมื่อวายร้ายที่อันตรายที่สุดจาก โลกของเขาได้ส่งกองกำลังที่เก่งกล้าสามารถที่สุดของแ อสการ์ดมาจู่โจมโลก มนุษย์ !!!

    General
    Unique ID : 211634393647548373561662632953767583922 (0x9F374D35944BA70FBFD04A538F0CE0B2)
    Complete name : Thor 1 เทพเจ้าสายฟ้า (2011) 1080p.mkv
    Format : Matroska
    Format version : Version 4 / Version 2
    File size : 10.9 GiB
    Duration : 1h 54mn
    Overall bit rate : 13.6 Mbps
    Encoded date : UTC 2016-11-01 07:00:03
    Writing application : mkvmerge v8.2.0 ( World of Adventure ) 64bit
    Writing library : libebml v1.3.1 + libmatroska v1.4.2
    DURATION : 01:53:13.661000000
    NUMBER_OF_FRAMES : 1091
    NUMBER_OF_BYTES : 33838
    _STATISTICS_WRITING_APP : mkvmerge v8.2.0 ( World of Adventure ) 64bit
    _STATISTICS_WRITING_DATE_UTC : 2016-11-01 07:00:03
    _STATISTICS_TAGS : BPS DURATION NUMBER_OF_FRAMES NUMBER_OF_BYTES

    Video
    ID : 1
    Format : AVC
    Format/Info : Advanced Video Codec
    Format profile : [email protected]
    Format settings, CABAC : Yes
    Format settings, ReFrames : 5 frames
    Codec ID : V_MPEG4/ISO/AVC
    Duration : 1h 54mn
    Bit rate : 11.0 Mbps
    Width : 1 920 pixels
    Height : 816 pixels
    Display aspect ratio : 2.35:1
    Frame rate mode : Constant
    Frame rate : 23.976 fps
    Color space : YUV
    Chroma subsampling : 4:2:0
    Bit depth : 8 bits
    Scan type : Progressive
    Bits/(Pixel*Frame) : 0.292
    Stream size : 8.58 GiB (79%)
    Writing library : x264 core 116 r2057+604 5ec0ca0
    Encoding settings : cabac=1 / ref=5 / deblock=1:-3:-3 / analyse=0x3:0x113 / me=umh / subme=10 / psy=1 / fade_compensate=0.00 / psy_rd=1.05:0.10 / mixed_ref=1 / me_range=48 / chroma_me=1 / trellis=2 / 8x8dct=1 / cqm=2 / deadzone=21,11 / fast_pskip=0 / chroma_qp_offset=-2 / threads=8 / sliced_threads=0 / nr=0 / decimate=1 / interlaced=0 / bluray_compat=0 / constrained_intra=0 / fgo=0 / bframes=6 / b_pyramid=2 / b_adapt=2 / b_bias=0 / direct=3 / weightb=1 / open_gop=0 / weightp=2 / keyint=250 / keyint_min=23 / scenecut=40 / intra_refresh=0 / rc_lookahead=60 / rc=2pass / mbtree=1 / bitrate=10951 / ratetol=1.0 / qcomp=0.70 / qpmin=1 / qpmax=63 / qpstep=4 / cplxblur=20.0 / qblur=0.5 / vbv_maxrate=45000 / vbv_bufsize=40000 / nal_hrd=none / ip_ratio=1.40 / aq=2:1.00
    Language : English
    Default : Yes
    Forced : No
    DURATION : 01:54:50.629000000
    NUMBER_OF_FRAMES : 165210
    NUMBER_OF_BYTES : 9427028305
    _STATISTICS_WRITING_APP : mkvmerge v8.2.0 ( World of Adventure ) 64bit
    _STATISTICS_WRITING_DATE_UTC : 2016-11-01 07:00:03
    _STATISTICS_TAGS : BPS DURATION NUMBER_OF_FRAMES NUMBER_OF_BYTES

    Audio #1
    ID : 2
    Format : AC-3
    Format/Info : Audio Coding 3
    Mode extension : CM (complete main)
    Format settings, Endianness : Big
    Codec ID : A_AC3
    Duration : 1h 54mn
    Bit rate mode : Constant
    Bit rate : 640 Kbps
    Channel(s) : 6 channels
    Channel positions : Front: L C R, Side: L R, LFE
    Sampling rate : 48.0 KHz
    Compression mode : Lossy
    Stream size : 526 MiB (5%)
    Title : Thai AC-3
    Language : Thai
    Default : Yes
    Forced : Yes

    Audio #2
    ID : 3
    Format : DTS
    Format/Info : Digital Theater Systems
    Format profile : ES
    Mode : 16
    Format settings, Endianness : Big
    Codec ID : A_DTS
    Duration : 1h 54mn
    Bit rate mode : Constant
    Bit rate : 1 509 Kbps
    Channel(s) : 6 channels
    Channel positions : Front: L C R, Side: L R, LFE
    Sampling rate : 48.0 KHz
    Bit depth : 24 bits
    Compression mode : Lossy
    Stream size : 1.21 GiB (11%)
    Title : Eng DTS
    Language : English
    Default : No
    Forced : No

    Audio #3
    ID : 4
    Format : AC-3
    Format/Info : Audio Coding 3
    Mode extension : CM (complete main)
    Format settings, Endianness : Big
    Codec ID : A_AC3
    Duration : 1h 54mn
    Bit rate mode : Constant
    Bit rate : 448 Kbps
    Channel(s) : 6 channels
    Channel positions : Front: L C R, Side: L R, LFE
    Sampling rate : 48.0 KHz
    Compression mode : Lossy
    Stream size : 368 MiB (3%)
    Title : Eng AC-3
    Language : English
    Default : No
    Forced : No

    Text #1
    ID : 5
    Format : VobSub
    Muxing mode : zlib
    Codec ID : S_VOBSUB
    Codec ID/Info : Picture based subtitle format used on DVDs
    Title : Thai
    Language : Thai
    Default : No
    Forced : No

    Text #2
    ID : 6
    Format : VobSub
    Muxing mode : zlib
    Codec ID : S_VOBSUB
    Codec ID/Info : Picture based subtitle format used on DVDs
    Title : Thai Out
    Language : Thai
    Default : No
    Forced : No

    Text #3
    ID : 7
    Format : VobSub
    Muxing mode : zlib
    Codec ID : S_VOBSUB
    Codec ID/Info : Picture based subtitle format used on DVDs
    Title : Thai BIG
    Language : Thai
    Default : No
    Forced : No

    Text #4
    ID : 8
    Format : PGS
    Muxing mode : zlib
    Codec ID : S_HDMV/PGS
    Codec ID/Info : Picture based subtitle format used on BDs/HD-DVDs
    Title : Thai PGS
    Language : Thai
    Default : No
    Forced : No

    Text #5
    ID : 9
    Format : VobSub
    Muxing mode : zlib
    Codec ID : S_VOBSUB
    Codec ID/Info : Picture based subtitle format used on DVDs
    Title : Eng
    Language : English
    Default : No
    Forced : No

    Text #6
    ID : 10
    Format : UTF-8
    Codec ID : S_TEXT/UTF8
    Codec ID/Info : UTF-8 Plain Text
    Title : Eng SRT
    Language : English
    Default : No
    Forced : No




    xxxxxxxxxxxxxxxxxxxxxxxxxxxxxxxxxxxxxxxxxxxxxxxxxx xxxxxxxxxxxxxxxxxxxxxxxxxxxxxxxx

    Thor 2 เทพเจ้าสายฟ้าโลกาทมิฬ The Dark World (2013) 1080p
    พากย์ ไทย อังกฤษ DTS ไทย อังกฤษ AC-3 บรรยาย ไทย อังกฤษ



    ธอร์ เทพเจ้าสายฟ้าโลกาทมิฬ สานต่อเรื่องราวการผจญภัยบนจอใหญ่ของธอร์ อเวนเจอร์ผู้ยิ่งใหญ่ ผู้ที่ต่อสู้เพื่อปกป้องโลกและดินแดนทั้ง 9
    จากศัตรูลึกลับที่หมายจะครอบครองจักรวาล ในการต่อสู้จาก ธอร์ ภาค 1 และ มาร์เวลส์ ดิ อเวนเจอร์ส ธอร์ ต่อสู้เพื่อนำความสงบ
    กลับมาสู่จักรวาล แต่ชนเผ่าโบราณที่นำโดย มาเลคิธ ผู้เคียดแค้น ได้กลับมา เพื่อทำให้จักรวาลกลับเข้าสู่ความมืดมิดอีกครั้ง
    การเผชิญหน้ากับศัตรูที่แม้แต่ โอดิน และ แอสการ์ด ไม่สามารถรับมือได้ ธอร์ต้องมุ่งหน้าสู่การเดินทางที่เต็มไปด้วยอันตราย
    และเป็นส่วนตัว เมื่อการเดินทางครั้งนี้ได้นำเขากลับมาพบกับเจน ฟอสเตอร์ และบังคับให้เขาต้องเสียสละทุกสิ่งอย่างเพื่อปกป้องพ วกเราทั้งหมด !!!

    General
    Unique ID : 202295612373307390906807751214655527409 (0x9830B7BE627E40919D89D18FE316D9F1)
    Complete name : Thor 2 เทพเจ้าสายฟ้าโลกาทมิฬ The Dark World (2013) 1080p.mkv
    Format : Matroska
    Format version : Version 4 / Version 2
    File size : 11.3 GiB
    Duration : 1h 52mn
    Overall bit rate : 14.4 Mbps
    Encoded date : UTC 2016-11-01 04:12:02
    Writing application : mkvmerge v8.2.0 ( World of Adventure ) 64bit
    Writing library : libebml v1.3.1 + libmatroska v1.4.2
    DURATION : 01:45:06.551000000
    NUMBER_OF_FRAMES : 1137
    NUMBER_OF_BYTES : 32609
    _STATISTICS_WRITING_APP : mkvmerge v8.2.0 ( World of Adventure ) 64bit
    _STATISTICS_WRITING_DATE_UTC : 2016-11-01 04:12:02
    _STATISTICS_TAGS : BPS DURATION NUMBER_OF_FRAMES NUMBER_OF_BYTES

    Video
    ID : 1
    Format : AVC
    Format/Info : Advanced Video Codec
    Format profile : [email protected]
    Format settings, CABAC : Yes
    Format settings, ReFrames : 4 frames
    Codec ID : V_MPEG4/ISO/AVC
    Duration : 1h 52mn
    Bit rate : 11.0 Mbps
    Width : 1 920 pixels
    Height : 800 pixels
    Display aspect ratio : 2.40:1
    Original display aspect ratio : 2.40:1
    Frame rate mode : Constant
    Frame rate : 23.976 fps
    Color space : YUV
    Chroma subsampling : 4:2:0
    Bit depth : 8 bits
    Scan type : Progressive
    Bits/(Pixel*Frame) : 0.299
    Stream size : 8.41 GiB (75%)
    Writing library : x264 core 120
    Encoding settings : cabac=1 / ref=3 / deblock=1:0:0 / analyse=0x3:0x113 / me=umh / subme=10 / psy=1 / psy_rd=1.00:0.00 / mixed_ref=1 / me_range=24 / chroma_me=1 / trellis=2 / 8x8dct=1 / cqm=0 / deadzone=21,11 / fast_pskip=1 / chroma_qp_offset=-2 / threads=12 / sliced_threads=0 / nr=0 / decimate=1 / interlaced=0 / bluray_compat=0 / constrained_intra=0 / bframes=3 / b_pyramid=2 / b_adapt=2 / b_bias=0 / direct=1 / weightb=1 / open_gop=0 / weightp=2 / keyint=240 / keyint_min=24 / scenecut=40 / intra_refresh=0 / rc_lookahead=50 / rc=2pass / mbtree=1 / bitrate=10999 / ratetol=1.0 / qcomp=0.60 / qpmin=3 / qpmax=69 / qpstep=4 / cplxblur=20.0 / qblur=0.5 / ip_ratio=1.40 / aq=1:1.00
    Language : English
    Default : Yes
    Forced : No
    Color range : Limited
    Color primaries : BT.709
    Transfer characteristics : BT.709
    Matrix coefficients : BT.709

    Audio #1
    ID : 2
    Format : DTS
    Format/Info : Digital Theater Systems
    Mode : 16
    Format settings, Endianness : Big
    Codec ID : A_DTS
    Duration : 1h 52mn
    Bit rate mode : Constant
    Bit rate : 755 Kbps
    Channel(s) : 6 channels
    Channel positions : Front: L C R, Side: L R, LFE
    Sampling rate : 48.0 KHz
    Bit depth : 24 bits
    Compression mode : Lossy
    Delay relative to video : 8ms
    Stream size : 605 MiB (5%)
    Title : Thai DTS by Junjao
    Language : Thai
    Default : Yes
    Forced : Yes

    Audio #2
    ID : 3
    Format : DTS
    Format/Info : Digital Theater Systems
    Mode : 16
    Format settings, Endianness : Big
    Codec ID : A_DTS
    Duration : 1h 52mn
    Bit rate mode : Constant
    Bit rate : 1 509 Kbps
    Channel(s) : 6 channels
    Channel positions : Front: L C R, Side: L R, LFE
    Sampling rate : 48.0 KHz
    Bit depth : 24 bits
    Compression mode : Lossy
    Delay relative to video : 750ms
    Stream size : 1.18 GiB (10%)
    Title : Eng DTS
    Language : English
    Default : No
    Forced : No

    Audio #3
    ID : 4
    Format : AC-3
    Format/Info : Audio Coding 3
    Mode extension : CM (complete main)
    Format settings, Endianness : Big
    Codec ID : A_AC3
    Duration : 1h 52mn
    Bit rate mode : Constant
    Bit rate : 640 Kbps
    Channel(s) : 6 channels
    Channel positions : Front: L C R, Side: L R, LFE
    Sampling rate : 48.0 KHz
    Compression mode : Lossy
    Delay relative to video : 774ms
    Stream size : 513 MiB (4%)
    Title : Thai AC-3
    Language : Thai
    Default : No
    Forced : No

    Audio #4
    ID : 5
    Format : AC-3
    Format/Info : Audio Coding 3
    Mode extension : CM (complete main)
    Format settings, Endianness : Big
    Codec ID : A_AC3
    Duration : 1h 52mn
    Bit rate mode : Constant
    Bit rate : 448 Kbps
    Channel(s) : 6 channels
    Channel positions : Front: L C R, Side: L R, LFE
    Sampling rate : 48.0 KHz
    Compression mode : Lossy
    Delay relative to video : 750ms
    Stream size : 359 MiB (3%)
    Title : Eng AC-3
    Language : English
    Default : No
    Forced : No

    Text #1
    ID : 6
    Format : VobSub
    Muxing mode : zlib
    Codec ID : S_VOBSUB
    Codec ID/Info : Picture based subtitle format used on DVDs
    Title : Thai For Non-English Part Only
    Language : Thai
    Default : Yes
    Forced : Yes

    Text #2
    ID : 7
    Format : VobSub
    Muxing mode : zlib
    Codec ID : S_VOBSUB
    Codec ID/Info : Picture based subtitle format used on DVDs
    Title : Thai
    Language : Thai
    Default : No
    Forced : No

    Text #3
    ID : 8
    Format : VobSub
    Muxing mode : zlib
    Codec ID : S_VOBSUB
    Codec ID/Info : Picture based subtitle format used on DVDs
    Title : Thai Out
    Language : Thai
    Default : No
    Forced : No

    Text #4
    ID : 9
    Format : VobSub
    Muxing mode : zlib
    Codec ID : S_VOBSUB
    Codec ID/Info : Picture based subtitle format used on DVDs
    Title : Thai BIG
    Language : Thai
    Default : No
    Forced : No

    Text #5
    ID : 10
    Format : VobSub
    Muxing mode : zlib
    Codec ID : S_VOBSUB
    Codec ID/Info : Picture based subtitle format used on DVDs
    Title : Thai Out BIG
    Language : Thai
    Default : No
    Forced : No

    Text #6
    ID : 11
    Format : PGS
    Muxing mode : zlib
    Codec ID : S_HDMV/PGS
    Codec ID/Info : Picture based subtitle format used on BDs/HD-DVDs
    Title : Thai PGS
    Language : Thai
    Default : No
    Forced : No

    Text #7
    ID : 12
    Format : PGS
    Muxing mode : zlib
    Codec ID : S_HDMV/PGS
    Codec ID/Info : Picture based subtitle format used on BDs/HD-DVDs
    Title : Thai PGS Out
    Language : Thai
    Default : No
    Forced : No

    Text #8
    ID : 13
    Format : VobSub
    Muxing mode : zlib
    Codec ID : S_VOBSUB
    Codec ID/Info : Picture based subtitle format used on DVDs
    Title : Eng
    Language : English
    Default : No
    Forced : No

    Text #9
    ID : 14
    Format : UTF-8
    Codec ID : S_TEXT/UTF8
    Codec ID/Info : UTF-8 Plain Text
    Title : Eng SRT
    Language : English
    Default : No
    Forced : No

    Menu #1
    00:00:00.000 : en:Prologue
    00:06:15.000 : en:The Nine Realms At Peace
    00:13:07.000 : en:Strange Happenings In London
    00:18:42.000 : en:The Aether Awakens
    00:24:58.000 : en:Welcome To Asgard
    00:29:09.000 : en:The Last Of The Kursed
    00:41:35.000 : en:Attack On Asgard
    00:49:42.000 : en:We Are Not Immortal
    00:55:58.000 : enesperate Times
    01:00:10.000 : en:Escape From Asgard
    01:08:14.000 : en:Brothers In Arms
    01:12:41.000 : en:Return To The Dark World
    01:21:36.000 : en:Follow The Signs
    01:26:24.000 : en:Thor vs. Malekith vs. The Convergence
    01:34:00.000 : en:The Aether Unleashed
    01:38:33.000 : en:Born To Be A King
    01:41:50.000 : en:End Credits

    Menu #2
    00:00:00.000 : en:00:00:00.000
    00:06:13.665 : en:00:06:13.665
    00:13:05.535 : en:00:13:05.535
    00:18:40.995 : en:00:18:40.995
    00:24:56.829 : en:00:24:56.829
    00:29:07.663 : en:00:29:07.663
    00:41:33.366 : en:00:41:33.366
    00:49:40.227 : en:00:49:40.227
    00:55:56.144 : en:00:55:56.144
    01:00:08.897 : en:01:00:08.897
    01:08:12.672 : en:01:08:12.672
    01:12:39.897 : en:01:12:39.897
    01:21:34.473 : en:01:21:34.473
    01:26:22.094 : en:01:26:22.094
    01:33:58.800 : en:01:33:58.800
    01:38:31.656 : en:01:38:31.656
    01:41:49.520 : en:01:41:49.520



    xxxxxxxxxxxxxxxxxxxxxxxxxxxxxxxxxxxxxxxxxxxxxxxxxx xxxxxxxxxxxxxxxxxxxxxxxxxxxxxxxx

    Thor 3 เทพเจ้าสายฟ้า Ragnarok ศึกอวสานเทพเจ้า (2017) 1080p
    พากย์ อังกฤษ DTS ไทย อังกฤษ AC-3 บรรยาย ไทย อังกฤษ



    2 ปีผ่านไปหลังจากเหตุการณ์ใน Avengers: Age of Ultron ธอร์ (โดยคริส แฮมส์เวิร์ธ) ออกผจญภัยเพื่อตามหาเบาะแสของ Infinity Stones
    จนกระทั่งเขาได้พบว่าอันตรายในชื่อ Ragnarok กำลังคืบคลานมาสู่แอสการ์ด แต่เมื่อเขากลับไปยังบ้านเกิด กลับได้เห็นว่า
    โลกิ (โดยทอม ฮิดเดลตัน) น้องชายจอมเจ้าเล่ห์ได้เนรเทศ โอดิน (โดยแอนโทนี ฮอปส์กิน) ออกไปและปลอมตัวเป็นบิดาแห่งแอสการ์ดแทน ธอร์จึงบังคับให้โลกิพา
    ไปตามตัวพ่อของพวกเขากลับคืน แต่นั่นทำให้เขาต้องเจอกับเทพีแห่งความตาย เฮลา (โดยเคท แบลนเช็ต) ที่หมายจะยึดบัลลังก์แห่งแอสการ์ดเป็นของเธอ
    .
    พวกเขาเข้าปะทะกัน ธอร์ไม่สามารถทำอะไรเฮลาได้แม้แต่น้อย หนำซ้ำค้อนคู่ใจอย่างโยเนียร์ยังถูกทำลายไม่เหลือชิ้ นดี ทุกอย่างยิ่งเลวร้าย
    เมื่อธอร์ถูกซัดหลุดออกจากจักรวาลไปยังดาวซาคาร์ ที่นั่นเขาถูกจับตัวโดย วัลคีรี (โดยเทสซ่า ทอมป์สัน) กลายเป็นนักสู้ที่ต้องเผชิญหน้า
    เพื่อเอาชนะกับอดีตเพื่อนร่วมงาน ฮัลค์ (โดยมาร์ค รัฟฟาโล) ขวัญใจคนล่าสุดแห่งซาคาร์ เพื่อหาหนทางที่จะกลับไปทวงแอสการ์ดคืน
    พร้อมตอบคำถามว่าเขาคือเทพเจ้าแห่งค้อน (โยเนียร์) หรือเทพเจ้าแห่งสายฟ้ากันแน่? !!!

    General
    Unique ID : 253639349979872740041502532870133134635 (0xBED1297398BEE698877C292FD1C2352B)
    Complete name : Thor 3 เทพเจ้าสายฟ้า Ragnarok ศึกอวสานเทพเจ้า (2017) 1080p.mkv
    Format : Matroska
    Format version : Version 4 / Version 2
    File size : 12.0 GiB
    Duration : 2h 10mn
    Overall bit rate : 13.2 Mbps
    Encoded date : UTC 2018-03-09 05:21:33
    Writing application : mkvmerge v8.2.0 ( World of Adventure ) 64bit
    Writing library : libebml v1.3.1 + libmatroska v1.4.2
    DURATION : 02:09:19.251000000
    NUMBER_OF_FRAMES : 3520
    NUMBER_OF_BYTES : 17244299
    _STATISTICS_WRITING_APP : mkvmerge v8.2.0 ( World of Adventure ) 64bit
    _STATISTICS_WRITING_DATE_UTC : 2018-03-09 05:21:33
    _STATISTICS_TAGS : BPS DURATION NUMBER_OF_FRAMES NUMBER_OF_BYTES

    Video
    ID : 1
    Format : AVC
    Format/Info : Advanced Video Codec
    Format profile : [email protected]
    Format settings, CABAC : Yes
    Format settings, ReFrames : 5 frames
    Codec ID : V_MPEG4/ISO/AVC
    Duration : 2h 10mn
    Bit rate : 10.5 Mbps
    Width : 1 920 pixels
    Height : 808 pixels
    Display aspect ratio : 2.40:1
    Frame rate mode : Constant
    Frame rate : 23.976 fps
    Color space : YUV
    Chroma subsampling : 4:2:0
    Bit depth : 8 bits
    Scan type : Progressive
    Bits/(Pixel*Frame) : 0.282
    Stream size : 9.40 GiB (78%)
    Writing library : x264 core 155 r2901 7d0ff22
    Encoding settings : cabac=1 / ref=5 / deblock=1:0:0 / analyse=0x3:0x133 / me=umh / subme=7 / psy=1 / psy_rd=1.00:0.00 / mixed_ref=1 / me_range=16 / chroma_me=1 / trellis=1 / 8x8dct=1 / cqm=0 / deadzone=21,11 / fast_pskip=0 / chroma_qp_offset=-2 / threads=24 / lookahead_threads=4 / sliced_threads=0 / nr=0 / decimate=1 / interlaced=0 / bluray_compat=0 / constrained_intra=0 / bframes=3 / b_pyramid=2 / b_adapt=1 / b_bias=0 / direct=1 / weightb=1 / open_gop=0 / weightp=2 / keyint=250 / keyint_min=23 / scenecut=40 / intra_refresh=0 / rc_lookahead=40 / rc=2pass / mbtree=1 / bitrate=10476 / ratetol=1.0 / qcomp=0.60 / qpmin=0 / qpmax=69 / qpstep=4 / cplxblur=20.0 / qblur=0.5 / ip_ratio=1.40 / aq=1:1.00
    Language : English
    Default : Yes
    Forced : No
    DURATION : 02:10:30.698000000
    NUMBER_OF_FRAMES : 187749
    NUMBER_OF_BYTES : 10253024086
    _STATISTICS_WRITING_APP : mkvmerge v8.2.0 ( World of Adventure ) 64bit
    _STATISTICS_WRITING_DATE_UTC : 2018-03-09 05:21:33
    _STATISTICS_TAGS : BPS DURATION NUMBER_OF_FRAMES NUMBER_OF_BYTES

    Audio #1
    ID : 2
    Format : AC-3
    Format/Info : Audio Coding 3
    Mode extension : CM (complete main)
    Format settings, Endianness : Big
    Codec ID : A_AC3
    Duration : 2h 10mn
    Bit rate mode : Constant
    Bit rate : 640 Kbps
    Channel(s) : 6 channels
    Channel positions : Front: L C R, Side: L R, LFE
    Sampling rate : 48.0 KHz
    Compression mode : Lossy
    Stream size : 597 MiB (5%)
    Title : Thai AC-3
    Language : Thai
    Default : Yes
    Forced : Yes

    Audio #2
    ID : 3
    Format : DTS
    Format/Info : Digital Theater Systems
    Mode : 16
    Format settings, Endianness : Big
    Codec ID : A_DTS
    Duration : 2h 10mn
    Bit rate mode : Constant
    Bit rate : 1 509 Kbps
    Channel(s) : 6 channels
    Channel positions : Front: L C R, Side: L R, LFE
    Sampling rate : 48.0 KHz
    Bit depth : 24 bits
    Compression mode : Lossy
    Stream size : 1.38 GiB (11%)
    Title : Eng DTS
    Language : English
    Default : No
    Forced : No

    Audio #3
    ID : 4
    Format : AC-3
    Format/Info : Audio Coding 3
    Mode extension : CM (complete main)
    Format settings, Endianness : Big
    Codec ID : A_AC3
    Duration : 2h 10mn
    Bit rate mode : Constant
    Bit rate : 448 Kbps
    Channel(s) : 6 channels
    Channel positions : Front: L C R, Side: L R, LFE
    Sampling rate : 48.0 KHz
    Compression mode : Lossy
    Stream size : 418 MiB (3%)
    Title : Eng AC-3
    Language : English
    Default : No
    Forced : No

    Text #1
    ID : 5
    Format : VobSub
    Muxing mode : zlib
    Codec ID : S_VOBSUB
    Codec ID/Info : Picture based subtitle format used on DVDs
    Title : Thai
    Language : Thai
    Default : No
    Forced : No

    Text #2
    ID : 6
    Format : VobSub
    Muxing mode : zlib
    Codec ID : S_VOBSUB
    Codec ID/Info : Picture based subtitle format used on DVDs
    Title : Thai
    Language : Thai
    Default : No
    Forced : No

    Text #3
    ID : 7
    Format : VobSub
    Muxing mode : zlib
    Codec ID : S_VOBSUB
    Codec ID/Info : Picture based subtitle format used on DVDs
    Title : Thai
    Language : Thai
    Default : No
    Forced : No

    Text #4
    ID : 8
    Format : VobSub
    Muxing mode : zlib
    Codec ID : S_VOBSUB
    Codec ID/Info : Picture based subtitle format used on DVDs
    Title : Thai Yellow
    Language : Thai
    Default : No
    Forced : No

    Text #5
    ID : 9
    Format : VobSub
    Muxing mode : zlib
    Codec ID : S_VOBSUB
    Codec ID/Info : Picture based subtitle format used on DVDs
    Title : Thai Out
    Language : Thai
    Default : No
    Forced : No

    Text #6
    ID : 10
    Format : VobSub
    Muxing mode : zlib
    Codec ID : S_VOBSUB
    Codec ID/Info : Picture based subtitle format used on DVDs
    Title : Thai BIG
    Language : Thai
    Default : No
    Forced : No

    Text #7
    ID : 11
    Format : VobSub
    Muxing mode : zlib
    Codec ID : S_VOBSUB
    Codec ID/Info : Picture based subtitle format used on DVDs
    Title : Thai Out BIG
    Language : Thai
    Default : No
    Forced : No

    Text #8
    ID : 12
    Format : PGS
    Muxing mode : zlib
    Codec ID : S_HDMV/PGS
    Codec ID/Info : Picture based subtitle format used on BDs/HD-DVDs
    Title : Thai PGS
    Language : Thai
    Default : No
    Forced : No

    Text #9
    ID : 13
    Format : PGS
    Muxing mode : zlib
    Codec ID : S_HDMV/PGS
    Codec ID/Info : Picture based subtitle format used on BDs/HD-DVDs
    Title : Thai PGS Yellow
    Language : Thai
    Default : No
    Forced : No

    Text #10
    ID : 14
    Format : PGS
    Muxing mode : zlib
    Codec ID : S_HDMV/PGS
    Codec ID/Info : Picture based subtitle format used on BDs/HD-DVDs
    Title : Thai PGS Out
    Language : Thai
    Default : No
    Forced : No

    Text #11
    ID : 15
    Format : VobSub
    Muxing mode : zlib
    Codec ID : S_VOBSUB
    Codec ID/Info : Picture based subtitle format used on DVDs
    Title : Eng
    Language : English
    Default : No
    Forced : No

    Text #12
    ID : 16
    Format : PGS
    Muxing mode : zlib
    Codec ID : S_HDMV/PGS
    Codec ID/Info : Picture based subtitle format used on BDs/HD-DVDs
    Title : EngPGS
    Language : English
    Default : No
    Forced : No





    Thor 1 เทพเจ้าสายฟ้า (2011) 1080p.mkv - 10.9 GB
    Thor 2 เทพเจ้าสายฟ้าโลกาทมิฬ The Dark World (2013) 1080p.mkv - 11.3 GB
    Thor 3 เทพเจ้าสายฟ้า Ragnarok ศึกอวสานเทพเจ้า (2017) 1080p.mkv - 12.0 GB


    1 http://www.mekafile.com/dl.php?f=dWe0dcbOq2Ur
    2 http://www.mekafile.com/dl.php?f=19c274bOq23g
    3 http://www.mekafile.com/dl.php?f=lu521fbOq2gt

  2. The Following User Says Thank You to Duckload.us For This Useful Post:

    Sazabi (01-11-2019)

  3. #2
    Senior Member
    Join Date
    Jan 2013
    Posts
    600
    Thanks
    600
    Thanked 0 Times in 0 Posts
    ขอบคุณมากครับ

+ Reply to Thread

Thread Information

Users Browsing this Thread

There are currently 1 users browsing this thread. (0 members and 1 guests)

     

Posting Permissions

  • You may not post new threads
  • You may not post replies
  • You may not post attachments
  • You may not edit your posts