American Pie Theatrical films (ภาคหลัก)




American Pie - แอ้มสาวให้ได้ก่อนปลายเทอม

ความน่ารักของกลุ่มวัยรุ่นอเมริกัน ในช่วงหัวเลี้ยวหัวต่อของการเติบโตเป็นผู้ใหญ่ที่เต็ มไปด้วยความสนุกสนาน ทั้งด้านชีวิต ความรัก และ.ประสบการอ๊ะจึ๋ย!?! จิม.(เจสัน บิ๊กส์).เป็นอีกหนึ่งหนุ่มที่ยังบริสุทธิ์ แผนแอ้มนักเรียนสาวต่างชาตินามนาเดีย.(แชนน่อน อลิซาเบ็ธ).ก็ไม่ได้เรื่อง ดังนั้น ความหวังสุดท้ายของเขาจึงพุ่งเป้ามาที่มิเชลล์.(อลิส ัน แฮนนิแกน).นักดนตรีวงดุริยางค์แต่แล้วจิมก็ตระหนักได ้ว่า ทุกสิ่งทุกอย่างที่เขาอยากรู้เกี่ยวกับเซ็กซ์นั้น เขาต้องเริ่มต้นที่พายแอปเปิ้ล! ทางด้านเควิน.(โธมัส เอียน นิโคลัส).ก็ไม่ต้องการอะไรมากไปกว่าการเอาใจวิกกี้.( ทาร่า รี้ด).แฟนสาวของเขานี่เอง ที่ทำให้เควินได้พบคัมภีร์สยบอารมณ์หญิงส่วนอ๊อซ.(คร ิส ไคลน์).นักกีฬาหนุ่มหล่อก็พุ่งความสนใจไปที่อีเธอร์. (มีน่า ซูวารี่).นักร้องประสานเสียงคนสวย แต่การเอาชนะใจเธอช่างเป็นเรื่องยากเย็นเสียเหลือเกิ น ผลงานสุดฮิตจากการสร้างของ พอล ไวทซ์ และ.คริส ไวทซ์ สองพื่น้องคู่ใหม่ที่สร้างความกระหึ่มให้แก่วงการ ขนนักแสดงวัยรุ่นมากมายมามอบความจี๊ดจ๊าดให้แก่หัวใจ คุณ

General
Complete name : {Super Mini-HD 1080p HQ} American Pie Unrated 1999 BluRay 1080p DTS x264-mlove.mkv
Format : Matroska
File size : 3.92 GiB
Duration : 1h 35mn
Overall bit rate : 5 872 Kbps
Encoded date : UTC 2015-03-21 20:17:46
Writing application : mkvmerge v7.7.0 ( Six Voices ) 64bit built on Feb 28 2015 23:39:33
Writing library : libebml v1.3.1 + libmatroska v1.4.2

Video
ID : 1
Format : AVC
Format/Info : Advanced Video Codec
Format profile : [email protected]
Format settings, CABAC : Yes
Format settings, ReFrames : 4 frames
Codec ID : V_MPEG4/ISO/AVC
Duration : 1h 35mn
Bit rate mode : Variable
Bit rate : 4 500 Kbps
Maximum bit rate : 100.0 Mbps
Width : 1 920 pixels
Height : 1 040 pixels
Display aspect ratio : 16:9
Frame rate mode : Variable
Frame rate : 23.976 fps
Color space : YUV
Chroma subsampling : 4:2:0
Bit depth : 8 bits
Scan type : Progressive
Bits/(Pixel*Frame) : 0.094
Stream size : 3.04 GiB (78%)
Title : {Super Mini-HD 1080p HQ} American Pie Unrated 1999 BluRay 1080p DTS x264-mlove
Writing library : x264 core 120 r2145M 748fe16
Encoding settings : cabac=1 / ref=4 / deblock=1:0:0 / analyse=0x3:0x133 / me=umh / subme=11 / psy=1 / psy_rd=1.00:0.15 / mixed_ref=1 / me_range=64 / chroma_me=1 / trellis=2 / 8x8dct=1 / cqm=0 / deadzone=21,11 / fast_pskip=1 / chroma_qp_offset=-3 / threads=8 / sliced_threads=0 / nr=0 / decimate=1 / interlaced=0 / bluray_compat=0 / constrained_intra=0 / bframes=4 / b_pyramid=2 / b_adapt=2 / b_bias=0 / direct=3 / weightb=1 / open_gop=0 / weightp=2 / keyint=230 / keyint_min=23 / scenecut=40 / intra_refresh=0 / rc_lookahead=120 / rc=2pass / mbtree=1 / bitrate=4500 / ratetol=1.0 / qcomp=0.60 / qpmin=0 / qpmax=69 / qpstep=4 / cplxblur=20.0 / qblur=0.5 / vbv_maxrate=99999 / vbv_bufsize=99999 / nal_hrd=vbr / ip_ratio=1.40 / aq=1:1.00
Language : English

Audio #1
ID : 2
Format : DTS
Format/Info : Digital Theater Systems
Codec ID : A_DTS
Duration : 1h 35mn
Bit rate mode : Constant
Bit rate : 755 Kbps
Channel(s) : 6 channels
Channel positions : Front: L C R, Side: L R, LFE
Sampling rate : 48.0 KHz
Bit depth : 24 bits
Compression mode : Lossy
Stream size : 516 MiB (13%)
Title : ENG DTS
Language : English

Audio #2
ID : 3
Format : AC-3
Format/Info : Audio Coding 3
Mode extension : CM (complete main)
Codec ID : A_AC3
Duration : 1h 35mn
Bit rate mode : Constant
Bit rate : 448 Kbps
Channel(s) : 6 channels
Channel positions : Front: L C R, Side: L R, LFE
Sampling rate : 48.0 KHz
Bit depth : 16 bits
Compression mode : Lossy
Stream size : 306 MiB (8%)
Title : [THAI AC3 FROM DVD MASTER]
Language : Thai

Text #1
ID : 4
Format : VobSub
Codec ID : S_VOBSUB
Codec ID/Info : The same subtitle format used on DVDs
Title : [SUB THAI 480P FROM DVD MASTER]
Language : Thai

Text #2
ID : 5
Format : VobSub
Codec ID : S_VOBSUB
Codec ID/Info : The same subtitle format used on DVDs
Title : [SUB THAI 1080P FROM DVD MASTER] TH Angsana UPC
Language : Thai

Text #3
ID : 6
Format : VobSub
Codec ID : S_VOBSUB
Codec ID/Info : The same subtitle format used on DVDs
Title : [SUB THAI 1080P FROM DVD MASTER] TH Sarabun
Language : Thai

Text #4
ID : 7
Format : PGS
Codec ID : S_HDMV/PGS
Codec ID/Info : The same subtitle format used on BDs/HD-DVDs
Title : THAI PGS Angsana UPC
Language : Thai

Text #5
ID : 8
Format : PGS
Codec ID : S_HDMV/PGS
Codec ID/Info : The same subtitle format used on BDs/HD-DVDs
Title : THAI PGS TH Sarabun
Language : Thai

Text #6
ID : 9
Format : PGS
Codec ID : S_HDMV/PGS
Codec ID/Info : The same subtitle format used on BDs/HD-DVDs
Title : [SUB ENG PGS FROM BLU-RAY]
Language : English



American Pie 2 - จุ๊จุ๊จุ๊...แอ้มสาวให้ได้ก่อนเปิดเทอม

เรื่องราวที่เป็นผู้ใหญ่มากขึ้น หลังจากปีแรกของพวกเขาที่วิทยาลัย พวกหนุ่มๆ ได้แก่ Jim , Kevin , Oz , Finch และ Stifle ได้เช่าบ้านชายหาดหลังหนึ่ง ปฏิญาณต่อกันว่าจะฉลองมิตรภาพ ของพวกเขาให้สนุกสุดเหวี่ยง และทำให้มันเป็นฤดูร้อน ที่เยี่ยมที่สุดของพวกเขา แต่อย่างเคย ความฝันของพวกเขาจะเป็นจริงหรือไม่นั้น ก็ขึ้นอยู่กับพวกสาวๆ อันได้แก่ Vicky , Michelle , Nadia , Heathe และ Jessica ด้วย

ตลอดช่วงฤดูร้อนที่วุ่นวาย แห่งงานเลี้ยงเสียงอึกทึก รวมทั้งเรื่องเลว ร้ายและที่แน่ๆ การเดินทางไปค่าย ทำให้พวกเขาค้นพบว่า แม้เวลาเปลี่ยนไป ผู้คนเปลี่ยนแปลง แต่มิตรภาพของพวกเขา จะคงอยู่ตลอดไป

General
Complete name : {Super Mini-HD 1080p HQ} American Pie 2 Unrated 2001 BluRay 1080p DTS x264-mlove.mkv
Format : Matroska
File size : 4.33 GiB
Duration : 1h 50mn
Overall bit rate : 5 607 Kbps
Encoded date : UTC 2015-03-06 16:08:06
Writing application : mkvmerge v7.7.0 ( Six Voices ) 64bit built on Feb 28 2015 23:39:33
Writing library : libebml v1.3.1 + libmatroska v1.4.2

Video
ID : 1
Format : AVC
Format/Info : Advanced Video Codec
Format profile : [email protected]
Format settings, CABAC : Yes
Format settings, ReFrames : 4 frames
Codec ID : V_MPEG4/ISO/AVC
Duration : 1h 50mn
Bit rate mode : Variable
Bit rate : 4 000 Kbps
Maximum bit rate : 100.0 Mbps
Width : 1 920 pixels
Height : 1 040 pixels
Display aspect ratio : 16:9
Frame rate mode : Variable
Frame rate : 23.976 fps
Color space : YUV
Chroma subsampling : 4:2:0
Bit depth : 8 bits
Scan type : Progressive
Bits/(Pixel*Frame) : 0.084
Stream size : 3.08 GiB (71%)
Title : {Super Mini-HD 1080p HQ} American 2 Unrated 2001 BluRay 1080p DTS x264-mlove
Writing library : x264 core 120 r2145M 748fe16
Encoding settings : cabac=1 / ref=4 / deblock=1:0:0 / analyse=0x3:0x133 / me=umh / subme=11 / psy=1 / psy_rd=1.00:0.15 / mixed_ref=1 / me_range=64 / chroma_me=1 / trellis=2 / 8x8dct=1 / cqm=0 / deadzone=21,11 / fast_pskip=1 / chroma_qp_offset=-3 / threads=8 / sliced_threads=0 / nr=0 / decimate=1 / interlaced=0 / bluray_compat=0 / constrained_intra=0 / bframes=4 / b_pyramid=2 / b_adapt=2 / b_bias=0 / direct=3 / weightb=1 / open_gop=0 / weightp=2 / keyint=230 / keyint_min=23 / scenecut=40 / intra_refresh=0 / rc_lookahead=120 / rc=2pass / mbtree=1 / bitrate=4000 / ratetol=1.0 / qcomp=0.60 / qpmin=0 / qpmax=69 / qpstep=4 / cplxblur=20.0 / qblur=0.5 / vbv_maxrate=99999 / vbv_bufsize=99999 / nal_hrd=vbr / ip_ratio=1.40 / aq=1:1.00
Language : English

Audio #1
ID : 2
Format : DTS
Format/Info : Digital Theater Systems
Codec ID : A_DTS
Duration : 1h 50mn
Bit rate mode : Constant
Bit rate : 755 Kbps
Channel(s) : 6 channels
Channel positions : Front: L C R, Side: L R, LFE
Sampling rate : 48.0 KHz
Bit depth : 24 bits
Compression mode : Lossy
Stream size : 597 MiB (13%)
Title : ENG DTS
Language : English

Audio #2
ID : 3
Format : DTS
Format/Info : Digital Theater Systems
Codec ID : A_DTS
Duration : 1h 50mn
Bit rate mode : Constant
Bit rate : 755 Kbps
Channel(s) : 6 channels
Channel positions : Front: L C R, Side: L R, LFE
Sampling rate : 48.0 KHz
Bit depth : 24 bits
Compression mode : Lossy
Stream size : 597 MiB (13%)
Title : [THAI DTS FROM BLU-RAY MASTER]
Language : Thai

Text #1
ID : 4
Format : VobSub
Codec ID : S_VOBSUB
Codec ID/Info : The same subtitle format used on DVDs
Title : [SUB THAI 480P FROM BLU-RAY]
Language : Thai

Text #2
ID : 5
Format : VobSub
Codec ID : S_VOBSUB
Codec ID/Info : The same subtitle format used on DVDs
Title : [SUB THAI 1080P FROM BLU-RAY]
Language : Thai

Text #3
ID : 6
Format : PGS
Codec ID : S_HDMV/PGS
Codec ID/Info : The same subtitle format used on BDs/HD-DVDs
Title : [SUB THAI PGS FROM BLU-RAY]
Language : Thai

Text #4
ID : 7
Format : PGS
Codec ID : S_HDMV/PGS
Codec ID/Info : The same subtitle format used on BDs/HD-DVDs
Title : [SUB ENG PGS FROM BLU-RAY]
Language : English



American Pie 3 The Wedding - แผนแอ้มด่วน ป่วนก่อนวิวาห์

กลับมาอีกครั้งกับเหล่าตัวละครที่เป็นที่ชื่นชอบของผ ู้ชมทั่วโลก ครั้งนี้ก๊วนหนุ่มๆเที่หวังจะแอ้มหญิงกลับมาเจอกันอี กครั้งด้วยโอกาสที่ พิเศษสุดๆ ใน American Pie: ThefWedding

ในที่สุด จิม และ.มิเชล ก็ตัดสินใจแต่งงานกัน..ขณะที่ สติฟเลอร์ ก็มุ่งหมายอย่างเต็มที่ที่จะจัดงานสละโสด และ.แน่นอนพ่อของจิมก็ยังคงทำหน้าที่ให้คำแนะนำตามแบ บพ่อในอุดมคติเป๊ะ...

ความฮาขำกลิ้ง และ.มุขตลกชวนเขินระดับสุดยอดต่างๆเที่บรรจุอยู่ในนี ้ ล้วนเป็นส่วนผสมที่บอกความเป็นอเมริกันพายอย่างแท้จร ิง และ.ถ้าคุณอยากรู้ว่าสิ่งไหนที่ไม่ควรจะทำเวลาไปเที่ ยวบาร์เกย์ อยากรู้ว่าทำไมการจู๋จี๋กับคนแก่ถึงไม่ใช่สิ่งที่ดี และ.เรื่องขนบนขนมเค้กแต่งงานนี่มาเกี่ยวอะไรด้วย American Pie: ThefWedding มีคำตอบให้คุณแน่

General
Complete name : {Super Mini-HD 1080p HQ} American Wedding Unrated 2003 BluRay 1080p DTS x264-mlove.mkv
Format : Matroska
File size : 4.08 GiB
Duration : 1h 43mn
Overall bit rate : 5 651 Kbps
Encoded date : UTC 2015-03-09 15:47:16
Writing application : mkvmerge v7.7.0 ( Six Voices ) 64bit built on Feb 28 2015 23:39:33
Writing library : libebml v1.3.1 + libmatroska v1.4.2

Video
ID : 1
Format : AVC
Format/Info : Advanced Video Codec
Format profile : [email protected]
Format settings, CABAC : Yes
Format settings, ReFrames : 4 frames
Codec ID : V_MPEG4/ISO/AVC
Duration : 1h 43mn
Bit rate mode : Variable
Bit rate : 4 000 Kbps
Maximum bit rate : 100.0 Mbps
Width : 1 920 pixels
Height : 808 pixels
Display aspect ratio : 2.35:1
Frame rate mode : Variable
Frame rate : 23.976 fps
Color space : YUV
Chroma subsampling : 4:2:0
Bit depth : 8 bits
Scan type : Progressive
Bits/(Pixel*Frame) : 0.108
Stream size : 2.91 GiB (71%)
Title : {Super Mini-HD 1080p HQ} American Wedding Unrated 2003 BluRay 1080p DTS x264-mlove
Writing library : x264 core 120 r2145M 748fe16
Encoding settings : cabac=1 / ref=4 / deblock=1:0:0 / analyse=0x3:0x133 / me=umh / subme=11 / psy=1 / psy_rd=1.00:0.15 / mixed_ref=1 / me_range=64 / chroma_me=1 / trellis=2 / 8x8dct=1 / cqm=0 / deadzone=21,11 / fast_pskip=1 / chroma_qp_offset=-3 / threads=8 / sliced_threads=0 / nr=0 / decimate=1 / interlaced=0 / bluray_compat=0 / constrained_intra=0 / bframes=4 / b_pyramid=2 / b_adapt=2 / b_bias=0 / direct=3 / weightb=1 / open_gop=0 / weightp=2 / keyint=230 / keyint_min=23 / scenecut=40 / intra_refresh=0 / rc_lookahead=120 / rc=2pass / mbtree=1 / bitrate=4000 / ratetol=1.0 / qcomp=0.60 / qpmin=0 / qpmax=69 / qpstep=4 / cplxblur=20.0 / qblur=0.5 / vbv_maxrate=99999 / vbv_bufsize=99999 / nal_hrd=vbr / ip_ratio=1.40 / aq=1:1.00
Language : English

Audio #1
ID : 2
Format : DTS
Format/Info : Digital Theater Systems
Codec ID : A_DTS
Duration : 1h 43mn
Bit rate mode : Constant
Bit rate : 755 Kbps
Channel(s) : 6 channels
Channel positions : Front: L C R, Side: L R, LFE
Sampling rate : 48.0 KHz
Bit depth : 24 bits
Compression mode : Lossy
Stream size : 558 MiB (13%)
Title : ENG DTS
Language : English

Audio #2
ID : 3
Format : DTS
Format/Info : Digital Theater Systems
Codec ID : A_DTS
Duration : 1h 43mn
Bit rate mode : Constant
Bit rate : 755 Kbps
Channel(s) : 6 channels
Channel positions : Front: L C R, Side: L R, LFE
Sampling rate : 48.0 KHz
Bit depth : 24 bits
Compression mode : Lossy
Stream size : 558 MiB (13%)
Title : [THAI DTS FROM BLU-RAY MASTER]
Language : Thai

Text #1
ID : 4
Format : VobSub
Codec ID : S_VOBSUB
Codec ID/Info : The same subtitle format used on DVDs
Title : [SUB THAI 480P FROM BLU-RAY]
Language : Thai

Text #2
ID : 5
Format : VobSub
Codec ID : S_VOBSUB
Codec ID/Info : The same subtitle format used on DVDs
Title : [SUB THAI 1080P FROM BLU-RAY]
Language : Thai

Text #3
ID : 6
Format : VobSub
Codec ID : S_VOBSUB
Codec ID/Info : The same subtitle format used on DVDs
Title : [SUB THAI 1080P FROM BLU-RAY] UNDER
Language : Thai

Text #4
ID : 7
Format : PGS
Codec ID : S_HDMV/PGS
Codec ID/Info : The same subtitle format used on BDs/HD-DVDs
Title : [SUB THAI PGS FROM BLU-RAY]
Language : Thai

Text #5
ID : 8
Format : PGS
Codec ID : S_HDMV/PGS
Codec ID/Info : The same subtitle format used on BDs/HD-DVDs
Title : [SUB THAI PGS FROM BLU-RAY] UNDER
Language : Thai

Text #6
ID : 9
Format : PGS
Codec ID : S_HDMV/PGS
Codec ID/Info : The same subtitle format used on BDs/HD-DVDs
Title : [SUB ENG PGS FROM BLU-RAY]
Language : English



American Pie: Reunion - คืนสู่เหย้าแก็งค์แอ้มสาว

มันคือซัมเมอร์ปี 1999 เมื่อเด็กผู้ชายสี่คนในเมืองเล็กๆ ของมิชิแกน มุ่งมั่นที่จะเสียหนุ่มให้จงได้

สิบกว่าปีต่อมา พวกเขาได้กลับมาเจอกันอีกครั้ง ในงานเลี้ยงรุ่นของอีสต์เกรทฟอลส์ ไฮสคูลช่วงวันหยุดยาวที่ได้มาอยู่ร่วมกัน พวกเขาค้นพบว่าบางสิ่งได้เปลี่ยนไป ขณะที่ใครบางคนไม่เคยเปลี่ยนเลย และระยะทางกับกาลเวลาก็ไม่มีวันทำลายมิตรภาพของเพื่อ นก๊วนนี้ได้

General
Complete name : {Super Mini-HD 1080p HQ} American Reunion 2012 BluRay 1080p DTS x264-mlove.mkv
Format : Matroska
File size : 4.17 GiB
Duration : 1h 52mn
Overall bit rate : 5 295 Kbps
Encoded date : UTC 2015-03-04 12:44:56
Writing application : mkvmerge v7.7.0 ( Six Voices ) 64bit built on Feb 28 2015 23:39:33
Writing library : libebml v1.3.1 + libmatroska v1.4.2

Video
ID : 1
Format : AVC
Format/Info : Advanced Video Codec
Format profile : [email protected]
Format settings, CABAC : Yes
Format settings, ReFrames : 4 frames
Codec ID : V_MPEG4/ISO/AVC
Duration : 1h 52mn
Bit rate mode : Variable
Bit rate : 4 000 Kbps
Maximum bit rate : 100.0 Mbps
Width : 1 920 pixels
Height : 1 040 pixels
Display aspect ratio : 16:9
Frame rate mode : Variable
Frame rate : 23.976 fps
Color space : YUV
Chroma subsampling : 4:2:0
Bit depth : 8 bits
Scan type : Progressive
Bits/(Pixel*Frame) : 0.084
Stream size : 3.14 GiB (75%)
Title : {Super Mini-HD 1080p HQ} American Reunion 2012 BluRay 1080p DTS x264-mlove
Writing library : x264 core 120 r2145M 748fe16
Encoding settings : cabac=1 / ref=4 / deblock=1:0:0 / analyse=0x3:0x133 / me=umh / subme=11 / psy=1 / psy_rd=1.00:0.15 / mixed_ref=1 / me_range=64 / chroma_me=1 / trellis=2 / 8x8dct=1 / cqm=0 / deadzone=21,11 / fast_pskip=1 / chroma_qp_offset=-3 / threads=8 / sliced_threads=0 / nr=0 / decimate=1 / interlaced=0 / bluray_compat=0 / constrained_intra=0 / bframes=4 / b_pyramid=2 / b_adapt=2 / b_bias=0 / direct=3 / weightb=1 / open_gop=0 / weightp=2 / keyint=230 / keyint_min=23 / scenecut=40 / intra_refresh=0 / rc_lookahead=120 / rc=2pass / mbtree=1 / bitrate=4000 / ratetol=1.0 / qcomp=0.60 / qpmin=0 / qpmax=69 / qpstep=4 / cplxblur=20.0 / qblur=0.5 / vbv_maxrate=99999 / vbv_bufsize=99999 / nal_hrd=vbr / ip_ratio=1.40 / aq=1:1.00
Language : English

Audio #1
ID : 2
Format : DTS
Format/Info : Digital Theater Systems
Codec ID : A_DTS
Duration : 1h 52mn
Bit rate mode : Constant
Bit rate : 755 Kbps
Channel(s) : 6 channels
Channel positions : Front: L C R, Side: L R, LFE
Sampling rate : 48.0 KHz
Bit depth : 24 bits
Compression mode : Lossy
Stream size : 609 MiB (14%)
Title : ENG DTS
Language : English

Audio #2
ID : 3
Format : AC-3
Format/Info : Audio Coding 3
Mode extension : CM (complete main)
Codec ID : A_AC3
Duration : 1h 52mn
Bit rate mode : Constant
Bit rate : 448 Kbps
Channel(s) : 6 channels
Channel positions : Front: L C R, Side: L R, LFE
Sampling rate : 48.0 KHz
Bit depth : 16 bits
Compression mode : Lossy
Stream size : 362 MiB (8%)
Title : [THAI AC3 FROM BLU-RAY MASTER]
Language : Thai

Text #1
ID : 4
Format : VobSub
Codec ID : S_VOBSUB
Codec ID/Info : The same subtitle format used on DVDs
Title : [SUB THAI 480P FROM BLU-RAY]
Language : Thai

Text #2
ID : 5
Format : VobSub
Codec ID : S_VOBSUB
Codec ID/Info : The same subtitle format used on DVDs
Title : [SUB THAI 1080P FROM BLU-RAY]
Language : Thai

Text #3
ID : 6
Format : PGS
Codec ID : S_HDMV/PGS
Codec ID/Info : The same subtitle format used on BDs/HD-DVDs
Title : [SUB THAI PGS FROM BLU-RAY]
Language : Thai

Text #4
ID : 7
Format : PGS
Codec ID : S_HDMV/PGS
Codec ID/Info : The same subtitle format used on BDs/HD-DVDs
Title : [SUB ENG PGS FROM BLU-RAY]
Language : English


American Pie Presents Spin-off films (ภาคแยก)




American Pie Presents: Band Camp - แผนป่วนแคมป์แล้วแอ้มสาว

แมทท์ น้องชายคนเล็กของ สติฟเลอร์ ที่ถูกลงโทษให้เข้าค่ายฤดูร้อนในแคมป์ดนตรีธรรมดา ๆ แห่งหนึ่ง ที่นั่นเองเขาได้ทำเรื่องแสบขึ้นไปอีก ด้วยการติดตั้งกล้องแอบถ่ายพร้อมกับมีที่ปรึกษาสุดฮอ ท แต่เมื่อเขาไปหลงเสน่ห์สาวเชียร์ อีลีส แน่นอนว่าผลลัพธ์ร้ายแรงมันรอเขาอยู่ข้างหน้าเห็นๆ งานนี้พ่อของจิม ต้องหวนกลับมารับบทที่ปรึกษาสุดเพี้ยนอีกหน แม้ว่าจะสุดทนในการช่วยเหลือน้องคนเล็กของสติฟเลอร์ ให้กลับมาอยู่กับร่องกับรอยก็ตาม - วีซีดี vcd American Pie Presents: Band Camp แผนป่วนแคมป์ แล้วแอ้มสาว

General
Complete name : American Pie Presents Band Camp 2005 WEB-DL 1080p DD5.1 H.264-mlove.mkv
Format : Matroska
File size : 3.89 GiB
Duration : 1h 31mn
Overall bit rate : 6 120 Kbps
Movie name : American Pie Presents Band Camp (2005)
Encoded date : UTC 2015-09-12 20:52:15
Writing application : mkvmerge v7.9.0 ( Birds ) 64bit
Writing library : libebml v1.3.1 + libmatroska v1.4.2

Video
ID : 1
Format : AVC
Format/Info : Advanced Video Codec
Format profile : [email protected]
Format settings, CABAC : Yes
Format settings, ReFrames : 4 frames
Codec ID : V_MPEG4/ISO/AVC
Duration : 1h 31mn
Bit rate : 5 230 Kbps
Width : 1 908 pixels
Height : 1 076 pixels
Display aspect ratio : 16:9
Original display aspect ratio : 16:9
Frame rate : 23.976 fps
Color space : YUV
Chroma subsampling : 4:2:0
Bit depth : 8 bits
Scan type : Progressive
Bits/(Pixel*Frame) : 0.106
Stream size : 3.33 GiB (85%)
Title : American Pie Presents Band Camp 2005 WEB-DL 1080p DD5.1 H.264-mlove
Language : English
Color primaries : BT.709-5, BT.1361, IEC 61966-2-4, SMPTE RP177
Transfer characteristics : BT.709-5, BT.1361
Matrix coefficients : BT.709-5, BT.1361, IEC 61966-2-4 709, SMPTE RP177

Audio #1
ID : 2
Format : AC-3
Format/Info : Audio Coding 3
Mode extension : CM (complete main)
Codec ID : A_AC3
Duration : 1h 31mn
Bit rate mode : Constant
Bit rate : 384 Kbps
Channel(s) : 6 channels
Channel positions : Front: L C R, Side: L R, LFE
Sampling rate : 48.0 KHz
Bit depth : 16 bits
Compression mode : Lossy
Stream size : 250 MiB (6%)
Title : [ENG AC3 FROM DVD MASTER]
Language : English

Audio #2
ID : 3
Format : AC-3
Format/Info : Audio Coding 3
Mode extension : CM (complete main)
Codec ID : A_AC3
Duration : 1h 31mn
Bit rate mode : Constant
Bit rate : 384 Kbps
Channel(s) : 6 channels
Channel positions : Front: L C R, Side: L R, LFE
Sampling rate : 48.0 KHz
Bit depth : 16 bits
Compression mode : Lossy
Delay relative to video : 1s 0ms
Stream size : 250 MiB (6%)
Title : [THAI AC3 FROM DVD MASTER]
Language : Thai

Text #1
ID : 4
Format : VobSub
Codec ID : S_VOBSUB
Codec ID/Info : The same subtitle format used on DVDs
Title : [SUB THAI 480P FROM DVD MASTER]
Language : Thai

Text #2
ID : 5
Format : VobSub
Codec ID : S_VOBSUB
Codec ID/Info : The same subtitle format used on DVDs
Title : [SUB THAI 1080P FROM DVD MASTER] TH Angsana UPC
Language : Thai

Text #3
ID : 6
Format : VobSub
Codec ID : S_VOBSUB
Codec ID/Info : The same subtitle format used on DVDs
Title : [SUB THAI 1080P FROM DVD MASTER] TH Sarabun
Language : Thai

Text #4
ID : 7
Format : PGS
Codec ID : S_HDMV/PGS
Codec ID/Info : The same subtitle format used on BDs/HD-DVDs
Title : THAI PGS Angsana UPC
Language : Thai

Text #5
ID : 8
Format : PGS
Codec ID : S_HDMV/PGS
Codec ID/Info : The same subtitle format used on BDs/HD-DVDs
Title : THAI PGS TH Sarabun
Language : Thai

Text #6
ID : 9
Format : UTF-8
Codec ID : S_TEXT/UTF8
Codec ID/Info : UTF-8 Plain Text
Title : ENG HI SRT
Language : English



American Pie Presents: The Naked Mile - แอ้มเย้ยฟ้าท้ามาราธอน

เรื่องราวของ อดัม สติฟเลอร์ ญาติผู้น้องของแมทและ.สตีฟจากภาคที่แล้ว หมอนี่กำลังคิดแผนแปลกๆเเพื่อสร้างชื่อเสียง.(รึชื่อ เสีย).ให้สมกับเป็นคนใน ตระกูล สติฟเลอร์ ด้วยการเป็นโต้โผจัดวิ่งแก้ผ้าขึ้นในวิทยาลัยของตัวเ อง

General
Complete name : American Pie Presents The Naked Mile 2006 WEB-DL 1080p DD5.1 H.264-mlove.mkv
Format : Matroska
File size : 3.85 GiB
Duration : 1h 41mn
Overall bit rate : 5 414 Kbps
Movie name : American Pie Presents Band Camp (2005)
Encoded date : UTC 2015-09-12 20:56:07
Writing application : mkvmerge v7.9.0 ( Birds ) 64bit
Writing library : libebml v1.3.1 + libmatroska v1.4.2

Video
ID : 1
Format : AVC
Format/Info : Advanced Video Codec
Format profile : [email protected]
Format settings, CABAC : No
Format settings, ReFrames : 3 frames
Codec ID : V_MPEG4/ISO/AVC
Duration : 1h 41mn
Bit rate : 4 538 Kbps
Width : 1 912 pixels
Height : 1 036 pixels
Display aspect ratio : 16:9
Frame rate mode : Variable
Frame rate : 23.976 fps
Color space : YUV
Chroma subsampling : 4:2:0
Bit depth : 8 bits
Scan type : Progressive
Bits/(Pixel*Frame) : 0.096
Stream size : 3.23 GiB (84%)
Title : American Pie Presents The Naked Mile 2006 WEB-DL 1080p DD5.1 H.264-mlove
Writing library : x264 core 135
Encoding settings : cabac=0 / ref=3 / deblock=1:0:0 / analyse=0x1:0x11 / me=hex / subme=7 / psy=1 / psy_rd=1.00:0.00 / mixed_ref=1 / me_range=16 / chroma_me=0 / trellis=2 / 8x8dct=0 / cqm=0 / deadzone=21,11 / fast_pskip=1 / chroma_qp_offset=-2 / threads=6 / lookahead_threads=1 / sliced_threads=0 / nr=0 / decimate=1 / interlaced=0 / bluray_compat=0 / constrained_intra=0 / bframes=0 / weightp=0 / keyint=300 / keyint_min=25 / scenecut=40 / intra_refresh=0 / rc_lookahead=40 / rc=crf / mbtree=1 / crf=22.0 / qcomp=0.60 / qpmin=10 / qpmax=51 / qpstep=4 / ip_ratio=1.40 / aq=1:1.00
Language : English

Audio #1
ID : 2
Format : AC-3
Format/Info : Audio Coding 3
Mode extension : CM (complete main)
Codec ID : A_AC3
Duration : 1h 41mn
Bit rate mode : Constant
Bit rate : 384 Kbps
Channel(s) : 6 channels
Channel positions : Front: L C R, Side: L R, LFE
Sampling rate : 48.0 KHz
Bit depth : 16 bits
Compression mode : Lossy
Delay relative to video : 750ms
Stream size : 280 MiB (7%)
Title : [ENG AC3 FROM DVD MASTER]
Language : English

Audio #2
ID : 3
Format : AC-3
Format/Info : Audio Coding 3
Mode extension : CM (complete main)
Codec ID : A_AC3
Duration : 1h 41mn
Bit rate mode : Constant
Bit rate : 384 Kbps
Channel(s) : 6 channels
Channel positions : Front: L C R, Side: L R, LFE
Sampling rate : 48.0 KHz
Bit depth : 16 bits
Compression mode : Lossy
Delay relative to video : 750ms
Stream size : 280 MiB (7%)
Title : [THAI AC3 FROM DVD MASTER]
Language : Thai

Text #1
ID : 4
Format : VobSub
Codec ID : S_VOBSUB
Codec ID/Info : The same subtitle format used on DVDs
Title : [SUB THAI 480P FROM DVD MASTER]
Language : Thai

Text #2
ID : 5
Format : VobSub
Codec ID : S_VOBSUB
Codec ID/Info : The same subtitle format used on DVDs
Title : [SUB THAI 1080P FROM DVD MASTER] TH Angsana UPC
Language : Thai

Text #3
ID : 6
Format : VobSub
Codec ID : S_VOBSUB
Codec ID/Info : The same subtitle format used on DVDs
Title : [SUB THAI 1080P FROM DVD MASTER] TH Sarabun
Language : Thai

Text #4
ID : 7
Format : PGS
Codec ID : S_HDMV/PGS
Codec ID/Info : The same subtitle format used on BDs/HD-DVDs
Title : THAI PGS Angsana UPC
Language : Thai

Text #5
ID : 8
Format : PGS
Codec ID : S_HDMV/PGS
Codec ID/Info : The same subtitle format used on BDs/HD-DVDs
Title : THAI PGS TH Sarabun
Language : Thai

Text #6
ID : 9
Format : UTF-8
Codec ID : S_TEXT/UTF8
Codec ID/Info : UTF-8 Plain Text
Title : ENG HI SRT
Language : English



American Pie Presents Beta House - เปิดหอซ่าส์ พลิกตำราแอ้ม

อีริค , ไรอัน และ ครูซ เริ่มต้นชีวิตในรั้วมหาวิทยาลัยและ ได้ไปอยู่ในหอพักนักศึกษาเบต้าเฮาส์ที่ๆเมีหัวหน้าปร ะจำหออย่าง ดไวท์ สติฟเลอร์ ผู้เป็นตำนานในด้านแอ้มสาว และ พวกเขาต้องต่อสู้กับอุปสรรคต่างๆ เพื่อสิทธิในการจัดปาร์ตี้!

General
Complete name : American Pie Presents Beta House 2007 WEB-DL 1080p DD5.1 H.264-mlove.mkv
Format : Matroska
File size : 3.66 GiB
Duration : 1h 28mn
Overall bit rate : 5 932 Kbps
Movie name : American Pie Presents Band Camp (2005)
Encoded date : UTC 2015-09-12 21:03:59
Writing application : mkvmerge v7.9.0 ( Birds ) 64bit
Writing library : libebml v1.3.1 + libmatroska v1.4.2

Video
ID : 1
Format : AVC
Format/Info : Advanced Video Codec
Format profile : [email protected]
Format settings, CABAC : No
Format settings, ReFrames : 3 frames
Codec ID : V_MPEG4/ISO/AVC
Duration : 1h 28mn
Bit rate : 4 982 Kbps
Width : 1 920 pixels
Height : 1 036 pixels
Display aspect ratio : 1.853
Frame rate mode : Variable
Frame rate : 23.976 fps
Color space : YUV
Chroma subsampling : 4:2:0
Bit depth : 8 bits
Scan type : Progressive
Bits/(Pixel*Frame) : 0.104
Stream size : 3.07 GiB (84%)
Title : American Pie Presents Beta House 2007 WEB-DL 1080p DD5.1 H.264-mlove
Writing library : x264 core 135
Encoding settings : cabac=0 / ref=3 / deblock=1:0:0 / analyse=0x1:0x11 / me=hex / subme=7 / psy=1 / psy_rd=1.00:0.00 / mixed_ref=1 / me_range=16 / chroma_me=0 / trellis=2 / 8x8dct=0 / cqm=0 / deadzone=21,11 / fast_pskip=1 / chroma_qp_offset=-2 / threads=6 / lookahead_threads=1 / sliced_threads=0 / nr=0 / decimate=1 / interlaced=0 / bluray_compat=0 / constrained_intra=0 / bframes=0 / weightp=0 / keyint=300 / keyint_min=25 / scenecut=40 / intra_refresh=0 / rc_lookahead=40 / rc=crf / mbtree=1 / crf=22.0 / qcomp=0.60 / qpmin=10 / qpmax=51 / qpstep=4 / ip_ratio=1.40 / aq=1:1.00
Language : English

Audio #1
ID : 2
Format : AC-3
Format/Info : Audio Coding 3
Mode extension : CM (complete main)
Codec ID : A_AC3
Duration : 1h 28mn
Bit rate mode : Constant
Bit rate : 384 Kbps
Channel(s) : 6 channels
Channel positions : Front: L C R, Side: L R, LFE
Sampling rate : 48.0 KHz
Bit depth : 16 bits
Compression mode : Lossy
Stream size : 243 MiB (6%)
Title : [ENG AC3 FROM DVD MASTER]
Language : English

Audio #2
ID : 3
Format : AC-3
Format/Info : Audio Coding 3
Mode extension : CM (complete main)
Codec ID : A_AC3
Duration : 1h 28mn
Bit rate mode : Constant
Bit rate : 448 Kbps
Channel(s) : 6 channels
Channel positions : Front: L C R, Side: L R, LFE
Sampling rate : 48.0 KHz
Bit depth : 16 bits
Compression mode : Lossy
Delay relative to video : 1s 0ms
Stream size : 283 MiB (8%)
Title : [THAI AC3 FROM DVD MASTER]
Language : Thai

Text #1
ID : 4
Format : VobSub
Codec ID : S_VOBSUB
Codec ID/Info : The same subtitle format used on DVDs
Title : [SUB THAI 480P FROM DVD MASTER]
Language : Thai

Text #2
ID : 5
Format : VobSub
Codec ID : S_VOBSUB
Codec ID/Info : The same subtitle format used on DVDs
Title : [SUB THAI 1080P FROM DVD MASTER] TH Angsana UPC
Language : Thai

Text #3
ID : 6
Format : VobSub
Codec ID : S_VOBSUB
Codec ID/Info : The same subtitle format used on DVDs
Title : [SUB THAI 1080P FROM DVD MASTER] TH Sarabun
Language : Thai

Text #4
ID : 7
Format : PGS
Codec ID : S_HDMV/PGS
Codec ID/Info : The same subtitle format used on BDs/HD-DVDs
Title : THAI PGS Angsana UPC
Language : Thai

Text #5
ID : 8
Format : PGS
Codec ID : S_HDMV/PGS
Codec ID/Info : The same subtitle format used on BDs/HD-DVDs
Title : THAI PGS TH Sarabun
Language : Thai

Text #6
ID : 9
Format : UTF-8
Codec ID : S_TEXT/UTF8
Codec ID/Info : UTF-8 Plain Text
Title : ENG HI SRT
Language : English



American Pie Presents: The Book of Love - เลิฟ คู่มือซ่าส์พลิกตำราแอ้ม

สิบปีหลังจากอเมริกันพายภาคแรกผ่านไป ครั้งนี้ สามหนุ่มน้อยที่รอคอยเสียพรหมจรรย์ ได้ค้นพบตำราอันยิ่งใหญ่ที่ซ่อนอยู่ในห้องสมุดของโรง เรียนอีสต์ เกรท ฟอลล์ ไฮสคูล มันคือเบันทึกที่สอนวิธีแอ้มสาวที่ดูเหมือนจะทำให้หน ุ่มน้อยเหล่านี้ต้องเจอ กับเรื่อง

General
Complete name : {Super Mini-HD 1080p HQ} American Pie Presents The Book of Love 2009 BluRay 1080p DTS x264-mlove.mkv
Format : Matroska
File size : 3.97 GiB
Duration : 1h 33mn
Overall bit rate : 6 074 Kbps
Encoded date : UTC 2015-09-12 21:14:38
Writing application : mkvmerge v7.9.0 ( Birds ) 64bit
Writing library : libebml v1.3.1 + libmatroska v1.4.2

Video
ID : 1
Format : AVC
Format/Info : Advanced Video Codec
Format profile : [email protected]
Format settings, CABAC : Yes
Format settings, ReFrames : 4 frames
Codec ID : V_MPEG4/ISO/AVC
Duration : 1h 33mn
Bit rate mode : Variable
Bit rate : 4 800 Kbps
Maximum bit rate : 100.0 Mbps
Width : 1 920 pixels
Height : 1 080 pixels
Display aspect ratio : 16:9
Frame rate mode : Variable
Frame rate : 23.976 fps
Color space : YUV
Chroma subsampling : 4:2:0
Bit depth : 8 bits
Scan type : Progressive
Bits/(Pixel*Frame) : 0.097
Stream size : 3.15 GiB (79%)
Title : {Super Mini-HD 1080p HQ} American Pie Presents The Book of Love 2009 BluRay 1080p DTS x264-mlove
Writing library : x264 core 120 r2145M 748fe16
Encoding settings : cabac=1 / ref=4 / deblock=1:0:0 / analyse=0x3:0x133 / me=umh / subme=11 / psy=1 / psy_rd=1.00:0.15 / mixed_ref=1 / me_range=64 / chroma_me=1 / trellis=2 / 8x8dct=1 / cqm=0 / deadzone=21,11 / fast_pskip=1 / chroma_qp_offset=-3 / threads=8 / sliced_threads=0 / nr=0 / decimate=1 / interlaced=0 / bluray_compat=0 / constrained_intra=0 / bframes=4 / b_pyramid=2 / b_adapt=2 / b_bias=0 / direct=3 / weightb=1 / open_gop=0 / weightp=2 / keyint=230 / keyint_min=23 / scenecut=40 / intra_refresh=0 / rc_lookahead=120 / rc=2pass / mbtree=1 / bitrate=4800 / ratetol=1.0 / qcomp=0.60 / qpmin=0 / qpmax=69 / qpstep=4 / cplxblur=20.0 / qblur=0.5 / vbv_maxrate=99999 / vbv_bufsize=99999 / nal_hrd=vbr / ip_ratio=1.40 / aq=1:1.00
Language : English

Audio #1
ID : 2
Format : DTS
Format/Info : Digital Theater Systems
Codec ID : A_DTS
Duration : 1h 33mn
Bit rate mode : Constant
Bit rate : 755 Kbps
Channel(s) : 6 channels
Channel positions : Front: L C R, Side: L R, LFE
Sampling rate : 48.0 KHz
Bit depth : 24 bits
Compression mode : Lossy
Stream size : 505 MiB (12%)
Title : ENG DTS
Language : English

Audio #2
ID : 3
Format : AC-3
Format/Info : Audio Coding 3
Mode extension : CM (complete main)
Codec ID : A_AC3
Duration : 1h 33mn
Bit rate mode : Constant
Bit rate : 384 Kbps
Channel(s) : 6 channels
Channel positions : Front: L C R, Side: L R, LFE
Sampling rate : 48.0 KHz
Bit depth : 16 bits
Compression mode : Lossy
Stream size : 257 MiB (6%)
Title : [THAI AC3 FROM DVD MASTER]
Language : Thai

Text #1
ID : 4
Format : VobSub
Codec ID : S_VOBSUB
Codec ID/Info : The same subtitle format used on DVDs
Title : [SUB THAI 480P FROM DVD MASTER]
Language : Thai

Text #2
ID : 5
Format : VobSub
Codec ID : S_VOBSUB
Codec ID/Info : The same subtitle format used on DVDs
Title : [SUB THAI 1080P FROM DVD MASTER] TH Angsana UPC
Language : Thai

Text #3
ID : 6
Format : VobSub
Codec ID : S_VOBSUB
Codec ID/Info : The same subtitle format used on DVDs
Title : [SUB THAI 1080P FROM DVD MASTER] TH Sarabun
Language : Thai

Text #4
ID : 7
Format : PGS
Codec ID : S_HDMV/PGS
Codec ID/Info : The same subtitle format used on BDs/HD-DVDs
Title : THAI PGS Angsana UPC
Language : Thai

Text #5
ID : 8
Format : PGS
Codec ID : S_HDMV/PGS
Codec ID/Info : The same subtitle format used on BDs/HD-DVDs
Title : THAI PGS TH Sarabun
Language : Thai

Text #6
ID : 9
Format : PGS
Codec ID : S_HDMV/PGS
Codec ID/Info : The same subtitle format used on BDs/HD-DVDs
Title : [SUB ENG PGS FROM BLU-RAY]
Language : English


American Pie Theatrical films (ภาคหลัก)
American Pie 1 เสียงซับไทยดีวีดีมาสเตอร์
American Pie 2 เสียงซับไทยบลูเรย์มาสเตอร์
American Wedding เสียงซับไทยบลูเรย์มาสเตอร์
American Reunion เสียงซับไทยบลูเรย์มาสเตอร์

American Pie Presents Spin-off films (ภาคแยก)
American Pie Presents Band Camp เสียงซับไทยดีวีดีมาสเตอร์
American Pie Presents The Naked Mile เสียงซับไทยดีวีดีมาสเตอร์
American Pie Presents Beta House เสียงซับไทยดีวีดีมาสเตอร์
American Pie Presents The Book of Love เสียงซับไทยดีวีดีมาสเตอร์

{Super Mini-HD 1080p HQ}
American Pie 1
American Pie 2
American Wedding
American Reunion
American Pie Presents The Book of Love

WEB-DL (หาภาพดีที่สุดได้เท่านี้ ชัดกว่า HDTV ตัวที่เก็บไว้ก่อนหน้า, ใช้เสียงอังกฤษจากดีวีดีมาสเตอร์เนื่องจากเสียงจากไฟ ล์ต้นฉบับมาต่ำกว่า)
American Pie Presents Band Camp
American Pie Presents The Naked Mile
American Pie Presents Beta House


American Pie Presents Band Camp 2005 WEB-DL 1080p DD5.1 H.264-mlove.mkv - 3.9 GB
American Pie Presents Beta House 2007 WEB-DL 1080p DD5.1 H.264-mlove.mkv - 3.7 GB
American Pie Presents The Naked Mile 2006 WEB-DL 1080p DD5.1 H.264-mlove.mkv - 3.8 GB
{Super Mini-HD 1080p HQ} American Pie Presents The Book of Love 2009 BluRay 1080p DTS x264-mlove.mkv - 4.0 GB
{Super Mini-HD 1080p HQ} American Pie 2 Unrated 2001 BluRay 1080p DTS x264-mlove.mkv - 4.3 GB
{Super Mini-HD 1080p HQ} American Pie Unrated 1999 BluRay 1080p DTS x264-mlove.mkv - 3.9 GB
{Super Mini-HD 1080p HQ} American Reunion 2012 BluRay 1080p DTS x264-mlove.mkv - 4.2 GB
{Super Mini-HD 1080p HQ} American Wedding Unrated 2003 BluRay 1080p DTS x264-mlove.mkv - 4.1 GB

American_Pie_Presents_Beta_House_2007_WEB-DL_1080p_DD5.1_H.264-mlove.mkv
http://www.mekafile.com/dl.php?f=oH7424bPmFJs
{Super_Mini-HD_1080p_HQ}_American_Wedding_Unrated_2003_BluRay_ 1080p_DTS_x264-mlove.mkv
http://www.mekafile.com/dl.php?f=Ss7c83bPmFCG
American_Pie_Presents_The_Naked_Mile_2006_WEB-DL_1080p_DD5.1_H.264-mlove.mkv
http://www.mekafile.com/dl.php?f=ws4841bPmFvU
{Super_Mini-HD_1080p_HQ}_American_Pie_Presents_The_Book_of_Lov e_2009_BluRay_1080p_DTS_x264-mlove.mkv
http://www.mekafile.com/dl.php?f=Qa497cbPmFp8
{Super_Mini-HD_1080p_HQ}_American_Reunion_2012_BluRay_1080p_DT S_x264-mlove.mkv
http://www.mekafile.com/dl.php?f=2bc310bPmFiA
{Super_Mini-HD_1080p_HQ}_American_Pie_2_Unrated_2001_BluRay_10 80p_DTS_x264-mlove.mkv
http://www.mekafile.com/dl.php?f=sC051fbPmFbO
American_Pie_Presents_Band_Camp_2005_WEB-DL_1080p_DD5.1_H.264-mlove.mkv
http://www.mekafile.com/dl.php?f=JJ5871bPmF4O
{Super_Mini-HD_1080p_HQ}_American_Pie_Unrated_1999_BluRay_1080 p_DTS_x264-mlove.mkv
http://www.mekafile.com/dl.php?f=p643ccbPmEY9