+ Reply to Thread
Results 1 to 2 of 2
  1. #1
    Administrators Duckload.us's Avatar
    Join Date
    Dec 2010
    Posts
    99,684
    Thanks
    9
    Thanked 101,101 Times in 48,418 Posts

    Question [ฝรั่ง]-[ใหม่!]Mortal Engines 2018 สมรภูมิล่าเมือง- จักรกลมรณะ Eng.DD5.1+DTS.5.1-WEB-DL.1080p.-[Soundtrack บรรยายไทย (แปลเอง)]



    สมรภูมิล่าเมือง : จักรกลมรณะ

    ผลงานจากการกำกับโดย คริสเตียน ริเวอร์ส ซึ่งเคยได้รับรางวัลออสการ์สาขาเทคนิคภาพยอดเยี่ยมจา ก King Kong มหากาพย์การผจญภัยสุดมันส์ครั้งใหม่ใน Mortal Engines สมรภูมิล่าเมือง: จักรกลมรณะ

    เรื่องย่อ

    ว่าด้วยเรื่องราวที่เกิดขึ้นหลายพันปีหลังจากที่อารย ธรรมถูกทำลายจากสงคราม มนุษย์ได้ปรับตัวและได้พัฒนาวิถีชีวิตใหม่ขึ้น ส่งผลทำให้เมืองต่างๆ บนโลกต้องเคลื่อนที่ไปด้วยล้อขนาดใหญ่ และและอาศัยหาทรัพยากร (ที่ขาดแคลนสุดๆ) จากการกินเมืองที่อ่อนแอกว่า เรื่องราวการไล่ล่าอาณานิคมสุดมันส์จึงบังเกิดขึ้น

    “โรเบิร์ต ชีแฮน” ซึ่งรับทเป็น “ทอม นัทส์เวิร์ธธี” ชายหนุ่มเด็กกำพร้าอายุ 15 ปีอาศัยอยู่ในเมืองนี้ ซึ่งมาจากระดับล่างของเมืองเคลื่อนที่ของลอนดอน เขาพบว่าตัวเองกำลังต่อสู้เพื่ออยู่รอด และหลังจากที่ได้เผชิญกับผู้ลี้ภัยสุดอันตราย “เฮสเตอร์ ชอว์” รับบทโดย “เฮรา ฮิลมาร์”
    แต่ “ทอม นัทส์เวิร์ธธี” มารู้ความจริงบางอย่างทีหลัง ทั้งสองที่อยู่ต่างขั้วกัน ก็กลายมาเป็นพันธมิตรกันได้อย่างไม่น่าเชื่อ และทั้งคู่มีเป้าหมายที่จะเปลี่ยนอนาคตที่โลกกำลังจะ เปลี่ยนไป

    General
    Unique ID : 59137551643206611648853881470870667286 (0x2C7D7A685959F40EADB0431A8A88C016)
    Complete name : F:mix loadMortal.Engines.2018.1080p.WEB-DL.DD5.1.H264-FGTMortal.Engines.2018.1080p.WEB-DL.DD5.1.DTS.5.1H264 @same-dts.mkv
    Format : Matroska
    Format version : Version 4
    File size : 5.07 GiB
    Duration : 2 h 8 min
    Overall bit rate : 5 654 kb/s
    Movie name : Mortal.Engines.2018.1080p.WEB-DL.DD5.1.H264-FGT
    Encoded date : UTC 2019-02-07 09:43:57
    Writing application : mkvmerge v26.0.0 ( In The Game ) 64-bit
    Writing library : libebml v1.3.6 + libmatroska v1.4.9
    Cover : Yes
    Attachments : small_cover.jpg / small_cover_land.jpg / cover.jpg / cover_land.jpg

    Video
    ID : 1
    Format : AVC
    Format/Info : Advanced Video Codec
    Format profile : [email protected]
    Format settings : CABAC / 5 Ref Frames
    Format settings, CABAC : Yes
    Format settings, RefFrames : 5 frames
    Codec ID : V_MPEG4/ISO/AVC
    Duration : 2 h 8 min
    Bit rate : 4 500 kb/s
    Width : 1 916 pixels
    Height : 796 pixels
    Display aspect ratio : 2.40:1
    Frame rate mode : Constant
    Frame rate : 23.976 (23976/1000) FPS
    Color space : YUV
    Chroma subsampling : 4:2:0
    Bit depth : 8 bits
    Scan type : Progressive
    Bits/(Pixel*Frame) : 0.123
    Stream size : 4.03 GiB (80%)
    Title : Mortal.Engines.2018.1080p.WEB-DL.DD5.1.H264-FGT
    Language : English
    Default : Yes
    Forced : No
    Color range : Limited
    Color primaries : BT.709
    Transfer characteristics : BT.709
    Matrix coefficients : BT.709

    Audio #1
    ID : 2
    Format : DTS
    Format/Info : Digital Theater Systems
    Codec ID : A_DTS
    Duration : 2 h 8 min
    Bit rate mode : Constant
    Bit rate : 756 kb/s
    Channel(s) : 6 channels
    Channel layout : C L R Ls Rs LFE
    Sampling rate : 48.0 kHz
    Frame rate : 93.750 FPS (512 SPF)
    Bit depth : 16 bits
    Compression mode : Lossy
    Stream size : 694 MiB (13%)
    Language : English
    Default : No
    Forced : No

    Audio #2
    ID : 3
    Format : AC-3
    Format/Info : Audio Coding 3
    Commercial name : Dolby Digital
    Codec ID : A_AC3
    Duration : 2 h 8 min
    Bit rate mode : Constant
    Bit rate : 384 kb/s
    Channel(s) : 6 channels
    Channel layout : L R C LFE Ls Rs
    Sampling rate : 48.0 kHz
    Frame rate : 31.250 FPS (1536 SPF)
    Bit depth : 16 bits
    Compression mode : Lossy
    Stream size : 353 MiB (7%)
    Title : Mortal.Engines.2018.1080p.WEB-DL.DD5.1.H264-FGT
    Language : English
    Service kind : Complete Main
    Default : Yes
    Forced : No

    Text #1
    ID : 4
    Format : PGS
    Muxing mode : zlib
    Codec ID : S_HDMV/PGS
    Codec ID/Info : Picture based subtitle format used on BDs/HD-DVDs
    Duration : 1 h 58 min
    Bit rate : 18.4 kb/s
    Count of elements : 2564
    Stream size : 15.6 MiB (0%)
    Language : Thai
    Default : Yes
    Forced : No

    Text #2
    ID : 5
    Format : PGS
    Muxing mode : zlib
    Codec ID : S_HDMV/PGS
    Codec ID/Info : Picture based subtitle format used on BDs/HD-DVDs
    Duration : 1 h 58 min
    Bit rate : 16.2 kb/s
    Count of elements : 2564
    Stream size : 13.7 MiB (0%)
    Language : Thai
    Default : No
    Forced : No

    Menu
    00:00:00.000 : en:1
    00:09:25.398 : en:2
    00:16:14.306 : en:3
    00:24:21.625 : en:4
    00:31:25.589 : en:5
    00:35:54.065 : en:6
    00:41:28.816 : en:7
    00:44:54.812 : en:8
    00:50:17.801 : en:9
    00:54:22.170 : en:10
    01:00:52.392 : en:11
    01:07:13.064 : en:12
    01:11:13.846 : en:13
    01:17:38.730 : en:14
    01:25:26.614 : en:15
    01:33:31.389 : en:16
    01:39:29.538 : en:17
    01:47:59.255 : en:18
    01:52:12.548 : en:19
    01:58:34.513 : en:20




    Cr : @same-dts


    Download: cornfile
    http://cornfile.com/9c2x8w3hvjwx
    Download: mekafile
    http://www.mekafile.com/dl.php?f=J59e2ebQ6nqQ

  2. The Following 3 Users Say Thank You to Duckload.us For This Useful Post:

    masaomi (02-09-2019), Sherlock (02-08-2019), Tellmon (02-08-2019)

  3. #2
    Senior Member
    Join Date
    Jun 2014
    Posts
    414
    Thanks
    0
    Thanked 0 Times in 0 Posts
    ขอบคุณครับ

+ Reply to Thread

Thread Information

Users Browsing this Thread

There are currently 1 users browsing this thread. (0 members and 1 guests)

     

Posting Permissions

  • You may not post new threads
  • You may not post replies
  • You may not post attachments
  • You may not edit your posts