+ Reply to Thread
Results 1 to 2 of 2
  1. #1
    Administrators Duckload.us's Avatar
    Join Date
    Dec 2010
    Posts
    99,665
    Thanks
    9
    Thanked 101,087 Times in 48,417 Posts

    Lightbulb [ฝรั่ง]- Mean Girls (2004) / ก๊วนสาวซ่าส์ วีนซะไม่มี [Remux.DTS.720p] [Modified]-[เสียงอังกฤษ DTS+พากย์ไทย 5.1+English Commentary]-[บรรยายไทย+อังกฤษ]





    Quote:

    เคดี้ เฮรอน (ลินด์เซย์ โลฮาน) ได้รับการเลี้ยงดูโดยพ่อแม่ที่เป็นนักสัตววิทยา และเติบโตขึ้นในป่าแอฟริกา เธอคิดว่าตัวเองรู้เรื่อง การอยู่รอดของผู้เหมาะสมที่สุด เป็นอย่างดี ทว่ากฎของป่ากลับถูกตีความหมายใหม่ เมื่อสาวน้อยวัย 15 ปี ที่เคยแต่เรียนหนังสืออยู่กับบ้าน ต้องเข้าโรงเรียนมัธยมปลายเป็นครั้งแรก และตกเป็นเหยื่อของสงครามจิตวิทยา กับกฎเกณฑ์สมอ้างขึ้นเองทางสังคม ที่เด็กสาวในยุคปัจจุบันทั้งหลายต้องเผชิญ
    ลองนึกภาพสาววัยรุ่นสักคน ที่ต้องเผชิญหน้ากับเรื่องหนักหนาสาหัส จากทั่วทุกมุมของประเทศดูสิ เมื่อสาวน้อยบ้านป่าผู้ยังไม่ประสีประสาอย่าง เคดี้ ย่างเท้าก้าวแรกบนพื้นโรงเรียนนอร์ธชอร์ไฮ ที่ตั้งอยู่ในเมืองเล็กๆ นอกชิคาโก มลรัฐอิลลินอยส์ ซึ่งหลังจากใช้ชีวิตในแอฟริกามานาน เคดี้ ที่ปัจจุบันเข้าวัยมัธยมปลาย ไม่รู้เลยว่า ความเป็นไปในบ้านเมืองอันเจริญแล้วนั้น บ้าบอและยุ่งเหยิงอย่างไร กระทั่งได้ปะทะกับ ?ราชินีผึ้ง? หนึ่งเผ่าพันธ์ที่ดุร้ายที่สุด ในบรรดาราชินีผึ้งทั้งมวล เธอคือ เรจินา จอร์จ (ราเชล แม็คอดัมส์) ผู้เก๋ไก๋และเป็นจอมเจ้าเล่ห์ ประจำโรงเรียนมัธยมปลายสุดพิเศษแห่งนี้
    แต่เคดี้ไม่ได้กระทุ้งไหล่ราชินีผึ้งเพียงคนเดียว เพราะเธอยังปล่อยเหล็กไนแสนเจ็บ ด้วยการตกหลุมรักแฟนเก่าของเรจินา แอรอน แซมวลส์ (โจนาธาน เบนเน็ท) เรจินาจึงวางแผนต่อยกลับ โดยวิธีเสแสร้งว่ายังมีใจให้กับแอรอน เพื่อที่เขาจะได้ไม่ต้องออกเดตกับเคดี้ โดยตลอดเวลานั้น เรจินายังตีหน้าเซ่อ เป็นเพื่อนแสนดีของเธออีกด้วย เคดี้ไม่มีทางเลือกใด นอกจากการใช้วิธีเดียวกันโต้ตอบ เพื่อให้ตัวเองยังได้อยู่ในเกม โลกของเด็กสาว ที่แข่งกันชิงดีชิงเด่น จนทั้งโรงเรียนถูกลากเข้าไปยังงานเลี้ยงใจร้าย ระดับเฟิร์สคลาส
    ท่ามกลางหนุ่มๆ คุณครูปากกล้า และวัฒนธรรมย่อยมากมาย เคดี้ต้องไต่เต้า และลื่นหล่น บันไดสังคมอันน่าเศร้าของชีวิตเด็กสาว ม.ปลาย ที่ ทำเอาชีวิตกลางป่ากลายเป็นเรื่องจิ๊บจ๊อย เมื่อเทียบกับโรงเรียนมัธยม!



    Quote:

    Format : Matroska
    File size : 3.51 GiB
    Duration : 1h 36mn
    Overall bit rate : 5 190 Kbps
    Movie name : Mean.Girls.2004.BDRip.720p.XviD.DTS.CtHts - PORSC
    Encoded date : UTC 2012-10-24 11:45:40
    Writing application : mkvmerge v4.2.0 ( No Talking ) built on Jul 28 2010 18:38:23
    Writing library : libebml v1.0.0 + libmatroska v1.0.0

    Video
    ID : 1
    Format : MPEG-4 Visual
    Format profile : Advanced [email protected]
    Format settings, BVOP : Yes
    Format settings, QPel : No
    Format settings, GMC : No warppoints
    Format settings, Matrix : Default (H.263)
    Codec ID : XVID
    Codec ID/Hint : XviD
    Duration : 1h 36mn
    Bit rate : 2 937 Kbps
    Width : 1 280 pixels
    Height : 720 pixels
    Display aspect ratio : 16:9
    Frame rate : 23.976 fps
    Resolution : 8 bits
    Colorimetry : 4:2:0
    Scan type : Progressive
    Bits/(Pixel*Frame) : 0.133
    Stream size : 1.99 GiB (57%)
    Title : Mean.Girls.2004.BDRip.720p.XviD.DTS.CtHts - PORSC
    Writing library : XviD 64

    Audio #1
    ID : 2
    Format : DTS
    Format/Info : Digital Theater Systems
    Codec ID : A_DTS
    Duration : 1h 36mn
    Bit rate mode : Constant
    Bit rate : 1 510 Kbps
    Channel(s) : 6 channels
    Channel positions : Front: L C R, Side: L R, LFE
    Sampling rate : 48.0 KHz
    Resolution : 24 bits
    Stream size : 1.02 GiB (29%)
    Title : English DTS

    Audio #2
    ID : 3
    Format : AC-3
    Format/Info : Audio Coding 3
    Codec ID : A_AC3
    Duration : 1h 36mn
    Bit rate mode : Constant
    Bit rate : 448 Kbps
    Channel(s) : 6 channels
    Channel positions : Front: L C R, Side: L R, LFE
    Sampling rate : 48.0 KHz
    Video delay : 2s 0ms
    Stream size : 311 MiB (9%)
    Title : Thai DVD Master
    Language : Thai

    Audio #3
    ID : 4
    Format : AC-3
    Format/Info : Audio Coding 3
    Format profile : Dolby Digital
    Codec ID : A_AC3
    Duration : 1h 36mn
    Bit rate mode : Constant
    Bit rate : 192 Kbps
    Channel(s) : 2 channels
    Channel positions : Front: L R
    Sampling rate : 48.0 KHz
    Video delay : 2s 0ms
    Stream size : 133 MiB (4%)
    Title : English Commentary

    Text #1
    ID : 5
    Format : VobSub
    Codec ID : S_VOBSUB
    Codec ID/Info : The same subtitle format used on DVDs
    Title : Thai 480p DVD Master
    Language : Thai

    Text #2
    ID : 6
    Format : VobSub
    Codec ID : S_VOBSUB
    Codec ID/Info : The same subtitle format used on DVDs
    Title : Thai 1080p Angsana
    Language : Thai

    Text #3
    ID : 7
    Format : VobSub
    Codec ID : S_VOBSUB
    Codec ID/Info : The same subtitle format used on DVDs
    Title : Thai 1080p Angsana Low
    Language : Thai

    Text #4
    ID : 8
    Format : VobSub
    Codec ID : S_VOBSUB
    Codec ID/Info : The same subtitle format used on DVDs
    Title : Thai 1080p Angsana Yellow
    Language : Thai

    Text #5
    ID : 9
    Format : VobSub
    Codec ID : S_VOBSUB
    Codec ID/Info : The same subtitle format used on DVDs
    Title : Thai 1080p Sarabun
    Language : Thai

    Text #6
    ID : 10
    Format : ASS
    Codec ID : S_TEXT/ASS
    Codec ID/Info : Advanced Sub Station Alpha
    Title : English




    Quote:
    SS-จับจากตัวไฟล์ครับ













    http://www.filecondo.com/dl.php?f=286b921trcut

  2. The Following 6 Users Say Thank You to Duckload.us For This Useful Post:

    agaligo (06-10-2013), beer181235 (07-30-2016), kappa (10-26-2012), moomarkmark (11-09-2012), wasan312 (10-25-2012), xchamp (11-11-2012)

  3. #2
    Senior Member
    Join Date
    Dec 2011
    Posts
    2,059
    Thanks
    0
    Thanked 0 Times in 0 Posts
    ขอบคุณค่ะ ^^

+ Reply to Thread

Thread Information

Users Browsing this Thread

There are currently 1 users browsing this thread. (0 members and 1 guests)

     

Posting Permissions

  • You may not post new threads
  • You may not post replies
  • You may not post attachments
  • You may not edit your posts